La Captura del Pelham 1 2 3
Kinderfilm

Скачать через торрент [VIDEO] Круто сваренные Hard Boiled бесплатно русская версия torrent активатор

Статистика раздачи
Размер:  1.8 GB   |    Зарегистрирован:  2 года   |    .torrent скачан:  31 раз   |   
Раздают:  1  
   
загрузка...
 
Автор Сообщение

Galfimbul

avatar Galfimbul


Круто сваренные / Hard Boiled / Lat sau san taam
«Он полицейский, и у него есть ум, отвага и инстинкт убийства...»

Год выпуска: 1992
Страна: Гонконг
Жанр: боевик, триллер, драма, криминал
Продолжительность: 02:08:07
Перевод №1: Профессиональный (Двухголосный, закадровый) Tycoon
Перевод №2: Авторский (Одноголосый, закадровый) Гаврилов
Cубтитры: нет
Режиссеры: Джон Ву / John Woo
В ролях: Чоу Юнь-Фат, Тони Люн Чу Вай, Тереза Мо, Филип Чан, Филип Квок, Энтони Вонг Чау-Санг, Хой-Шан Кван, Вэй Тунг, Боуи Лам, Менг Ло и другие .
Описание: Гонконгская полиция пытается противостоять триадам, контролирующим незаконный оборот оружия. Главный герой, полицейский по прозвищу Текила, хочет в одиночку обезвредить преступников и отомстить за убитого напарника…

Из-за чрезвычайно жесткого графика у съёмочной группы была всего лишь одна попытка сделать ту самую трехминутную сцену перестрелки в больнице, снятую одним планом.
До этого фильма Джона Ву критиковали за то, что он в своих картинах идеализировал бандитов, поэтому режиссер решил сделать фильм, который идеализировал полицию.
Использование дробовика в коробке с розами — оригинальная идея, как в «Терминаторе 2: Судный день» (1991), так и в «Круто сваренных». То, что эти два фильма вышли практически в одно и то же время — это всего лишь совпадение. Данный прием в «Круто сваренных» — это ни в коем случае не заимствование из фильма Камерона, потому что схожая сцена, присутствует в двух фильмах, послуживших вдохновением для создания «Круто сваренных», — «Собачий полдень» (1975), где персонаж Аль Пачино приносит винтовку в банк; и «Убийство» (1956), где банда проносит оружие для ограбление в коробках из под роз.
Сценарий был практически полностью переписан за неделю до начала съёмок. В первой версии сценария речь шла о человеке, отравляющем бутылки с детской питательной смесью, но Джону Ву не понравился такой сюжет.
Количество трупов в фильме — 307.
Полный вариант фильма имеет хронометраж 131 минута.
Фильм посвящается памяти Бэрри Вонга, погибшего незадолго до премьеры.

Релиз группы
Качество: HDRip / <a href="viewtopic.php?t=3310894" class="postLink">BDRip 720p</a>
Формат: MP4
Видео кодек: H.264
Аудио кодек: AAC
Видео: 960x516 AR:1.85 1740 kbps 23.976 fps
Аудио №1: [Русский] 2ch 48 kHz 128 kbps - [DVO] Профессиональный (Двухголосный, закадровый) Tycoon
Аудио №2: [Русский] 2ch 48 kHz 128 kbps - [VO] Авторский (Одноголосый, закадровый) Гаврилов
...last pass...

x264.exe: --pass 2 --bitrate 1740 --preset medium --profile high --level 4.1 --ref 8 --deblock -3:-3 --merange 32 --bframes 8 --direct auto --b-adapt 2 --trellis 2 --no-fast-pskip --no-dct-decimate --psy-rd 1.00:0.15 --subme 11 --me umh --rc-lookahead 60 --colorprim bt709 --transfer bt709 --colormatrix bt709 --sar 1:1 --stats "D:\Круто сваренные (Hard Boiled).1992.BDRip.720.-WiKi.log" --output "D:\Круто сваренные (Hard Boiled).1992.BDRip.720.-WiKi.mp4" "D:\XVID4PSP 5\Temp\0037.avs"

avs [info]: 960x516p 1:1 @ 2997/125 fps (cfr)
x264 [info]: using SAR=1/1
x264 [info]: using cpu capabilities: MMX2 SSE2Fast SSSE3 SSE4.2 LZCNT
x264 [info]: profile High, level 4.1

x264 [info]: frame I:1749 Avg QP:19.95 size: 47621
x264 [info]: frame P:43688 Avg QP:23.79 size: 16726
x264 [info]: frame B:138884 Avg QP:25.17 size: 6176
x264 [info]: consecutive B-frames: 3.2% 3.8% 10.0% 24.3% 15.2% 40.3% 2.0% 0.7% 0.6%
x264 [info]: mb I I16..4: 5.8% 81.1% 13.1%
x264 [info]: mb P I16..4: 2.6% 14.0% 1.9% P16..4: 37.9% 34.8% 6.7% 0.0% 0.0% skip: 2.1%
x264 [info]: mb B I16..4: 0.3% 1.7% 0.2% B16..8: 40.9% 16.6% 1.7% direct: 5.7% skip:33.0% L0:43.8% L1:48.7% BI: 7.5%
x264 [info]: 8x8 transform intra:77.1% inter:74.9%
x264 [info]: direct mvs spatial:99.0% temporal:1.0%
x264 [info]: coded y,uvDC,uvAC intra: 76.3% 74.5% 34.8% inter: 23.5% 30.8% 4.6%
x264 [info]: i16 v,h,dc,p: 23% 14% 4% 59%
x264 [info]: i8 v,h,dc,ddl,ddr,vr,hd,vl,hu: 12% 6% 3% 10% 15% 15% 14% 12% 13%
x264 [info]: i4 v,h,dc,ddl,ddr,vr,hd,vl,hu: 23% 6% 4% 8% 13% 13% 12% 10% 11%
x264 [info]: i8c dc,h,v,p: 30% 27% 23% 21%
x264 [info]: Weighted P-Frames: Y:11.8% UV:6.4%
x264 [info]: ref P L0: 47.1% 12.1% 19.7% 6.7% 5.3% 3.6% 3.2% 1.9% 0.5% 0.0%
x264 [info]: ref B L0: 75.8% 12.7% 5.5% 2.7% 1.8% 1.1% 0.4%
x264 [info]: ref B L1: 93.4% 6.6%
x264 [info]: kb/s:1739.66

x264 [total]: encoded 184321 frames, 6.04 fps, 1739.66 kb/s

GeneralComplete name : D:\Torrents\Круто сваренные (Hard Boiled).1992.HDRip.x264.960x.rip by Frost O.S.mp4Format : MPEG-4Format profile : Base MediaCodec ID : isomFile size : 1.80 GiBDuration : 2h 8mnOverall bit rate mode : VariableOverall bit rate : 2 007 KbpsMovie name : Круто сваренные (Hard Boiled) 1992 HDRip x264 960x rip by Frost O SGenre : ActionContentType : Short FilmEncoded date : UTC 2016-03-25 12:38:29Tagged date : UTC 2016-03-25 12:40:25Writing application : MkvToMp4 version: 0.224 (x64)Cover : YesComment : rip by Frost O.SLongDescription : Гонконгская полиция пытается противостоять триадам, контролирующим незаконный оборот оружия. Главный герой, полицейский по прозвищу Текила, хочет в одиночку обезвредить преступников и отомстить за убитого напарника…

VideoID : 1Format : AVCFormat/Info : Advanced Video CodecFormat profile : [email protected] settings, CABAC : YesFormat settings, ReFrames : 8 framesCodec ID : avc1Codec ID/Info : Advanced Video CodingDuration : 2h 8mnBit rate : 1 740 KbpsMaximum bit rate : 8 845 KbpsWidth : 960 pixelsHeight : 516 pixelsDisplay aspect ratio : 1.85:1Frame rate mode : ConstantFrame rate : 23.976 fpsColor space : YUVChroma subsampling : 4:2:0Bit depth : 8 bitsScan type : ProgressiveBits/(Pixel*Frame) : 0.147Stream size : 1.56 GiB (87%)Writing library : x264 core 130 r2273 b3065e6Encoding settings : cabac=1 / ref=8 / deblock=1:-3:-3 / analyse=0x3:0x113 / me=umh / subme=11 / psy=1 / psy_rd=1.00:0.15 / mixed_ref=1 / me_range=32 / chroma_me=1 / trellis=2 / 8x8dct=1 / cqm=0 / deadzone=21,11 / fast_pskip=0 / chroma_qp_offset=-3 / threads=3 / lookahead_threads=1 / sliced_threads=0 / nr=0 / decimate=0 / interlaced=0 / bluray_compat=0 / constrained_intra=0 / bframes=8 / b_pyramid=2 / b_adapt=2 / b_bias=0 / direct=3 / weightb=1 / open_gop=0 / weightp=2 / keyint=250 / keyint_min=23 / scenecut=40 / intra_refresh=0 / rc_lookahead=60 / rc=2pass / mbtree=1 / bitrate=1740 / ratetol=1.0 / qcomp=0.60 / qpmin=0 / qpmax=69 / qpstep=4 / cplxblur=20.0 / qblur=0.5 / ip_ratio=1.40 / aq=1:1.00Language : EnglishEncoded date : UTC 2016-03-25 12:38:29Tagged date : UTC 2016-03-25 12:39:11Color primaries : BT.709Transfer characteristics : BT.709Matrix coefficients : BT.709Color range : Limited

Audio #1ID : 2Format : AACFormat/Info : Advanced Audio CodecFormat profile : LCCodec ID : 40Duration : 2h 8mnBit rate mode : VariableBit rate : 128 KbpsMaximum bit rate : 135 KbpsChannel(s) : 2 channelsChannel positions : Front: L RSampling rate : 48.0 KHzCompression mode : LossyStream size : 117 MiB (6%)Title : [DVO] Tycoon / [DVO] TycoonLanguage : RussianEncoded date : UTC 2016-03-25 12:38:52Tagged date : UTC 2016-03-25 12:39:11

Audio #2ID : 3Format : AACFormat/Info : Advanced Audio CodecFormat profile : LCCodec ID : 40Duration : 2h 8mnBit rate mode : VariableBit rate : 128 KbpsMaximum bit rate : 132 KbpsChannel(s) : 2 channelsChannel positions : Front: L RSampling rate : 48.0 KHzCompression mode : LossyStream size : 117 MiB (6%)Title : [VO] Gavrilov / [VO] GavrilovLanguage : RussianEncoded date : UTC 2016-03-25 12:39:05Tagged date : UTC 2016-03-25 12:39:11


Трекер:  [ 25-Мар-2016 15:30 ]

  

Скачать .torrent

Размер .torrent файла 18 KB


Размер: 1.8 GB
Хэш (hash) релиза: 3e99184f04494e40a9cff27eeed3b59a24e16ffe

Еще никто не оставлял запись к записи скачать торрент [VIDEO] Круто сваренные Hard Boiled . Будь первым!

!Обратная связь