Drive Link | Doris Day | Nat Geo Wild: Невероятная Африка. Разноцветный континент / Extraordinary Africa. The Continent of Colors (2014) HDTVRip-AVC | P1

Скачать через торрент [VIDEO] Круто сваренные Hard Boiled бесплатно русская версия torrent активатор

Статистика раздачи
Размер:  582 MB   |    Зарегистрирован:  2 года 3 месяца   |    .torrent скачан:  24 раза   |   
Раздают:  1  
   
загрузка...
 
Автор Сообщение

Galfimbul

avatar Galfimbul


Круто сваренные / Hard Boiled / Lat sau san taam
«Он полицейский, и у него есть ум, отвага и инстинкт убийства...»

Год выпуска: 1992
Страна: Гонконг
Жанр: боевик, триллер, драма, криминал
Продолжительность: 02:08:07
Перевод: Профессиональный (Двухголосный, закадровый) Tycoon
Cубтитры: нет
Режиссеры: Джон Ву / John Woo
В ролях: Чоу Юнь-Фат, Тони Люн Чу Вай, Тереза Мо, Филип Чан, Филип Квок, Энтони Вонг Чау-Санг, Хой-Шан Кван, Вэй Тунг, Боуи Лам, Менг Ло и другие .
Описание: Гонконгская полиция пытается противостоять триадам, контролирующим незаконный оборот оружия. Главный герой, полицейский по прозвищу Текила, хочет в одиночку обезвредить преступников и отомстить за убитого напарника…

Из-за чрезвычайно жесткого графика у съёмочной группы была всего лишь одна попытка сделать ту самую трехминутную сцену перестрелки в больнице, снятую одним планом.
До этого фильма Джона Ву критиковали за то, что он в своих картинах идеализировал бандитов, поэтому режиссер решил сделать фильм, который идеализировал полицию.
Использование дробовика в коробке с розами — оригинальная идея, как в «Терминаторе 2: Судный день» (1991), так и в «Круто сваренных». То, что эти два фильма вышли практически в одно и то же время — это всего лишь совпадение. Данный прием в «Круто сваренных» — это ни в коем случае не заимствование из фильма Камерона, потому что схожая сцена, присутствует в двух фильмах, послуживших вдохновением для создания «Круто сваренных», — «Собачий полдень» (1975), где персонаж Аль Пачино приносит винтовку в банк; и «Убийство» (1956), где банда проносит оружие для ограбление в коробках из под роз.
Сценарий был практически полностью переписан за неделю до начала съёмок. В первой версии сценария речь шла о человеке, отравляющем бутылки с детской питательной смесью, но Джону Ву не понравился такой сюжет.
Количество трупов в фильме — 307.
Полный вариант фильма имеет хронометраж 131 минута.
Фильм посвящается памяти Бэрри Вонга, погибшего незадолго до премьеры.

Релиз группы
Качество: HDRip / <a href="viewtopic.php?t=3310894" class="postLink">BDRip 720p</a>
Формат: MP4
Видео кодек: XviD
Аудио кодек: AAC
Видео: 480x256 AR:1.85 500 kbps 23.976 fps
Аудио: [Русский] 2ch 48 kHz 128 kbps - [DVO] Профессиональный (Двухголосный, закадровый) Tycoon
GeneralComplete name : D:\Torrents\Круто сваренные (Hard Boiled).1992.HDRip.XviD.480x.rip by Frost O.S.mp4Format : MPEG-4Format profile : Base MediaCodec ID : isomFile size : 582 MiBDuration : 2h 8mnOverall bit rate mode : VariableOverall bit rate : 635 KbpsMovie name : Круто сваренные (Hard Boiled) 1992 HDRip XviD 480x rip by Frost O SGenre : ActionContentType : Short FilmEncoded date : UTC 2016-03-25 12:47:15Tagged date : UTC 2016-03-25 12:47:39Writing application : MkvToMp4 version: 0.224 (x64)Cover : YesComment : rip by Frost O.SLongDescription : Гонконгская полиция пытается противостоять триадам, контролирующим незаконный оборот оружия. Главный герой, полицейский по прозвищу Текила, хочет в одиночку обезвредить преступников и отомстить за убитого напарника…

VideoID : 1Format : MPEG-4 VisualFormat profile : Advanced [email protected] settings, BVOP : YesFormat settings, QPel : NoFormat settings, GMC : No warppointsFormat settings, Matrix : CustomCodec ID : 20Duration : 2h 8mnBit rate mode : VariableBit rate : 500 KbpsMaximum bit rate : 3 791 KbpsWidth : 480 pixelsHeight : 256 pixelsDisplay aspect ratio : 1.85:1Frame rate mode : ConstantFrame rate : 23.976 fpsColor space : YUVChroma subsampling : 4:2:0Bit depth : 8 bitsScan type : ProgressiveCompression mode : LossyBits/(Pixel*Frame) : 0.170Stream size : 458 MiB (79%)Writing library : XviD 1.2.1 (UTC 2008-12-04)Language : EnglishTagged date : UTC 2016-03-25 12:47:20

AudioID : 2Format : AACFormat/Info : Advanced Audio CodecFormat profile : LCCodec ID : 40Duration : 2h 8mnBit rate mode : VariableBit rate : 128 KbpsMaximum bit rate : 135 KbpsChannel(s) : 2 channelsChannel positions : Front: L RSampling rate : 48.0 KHzCompression mode : LossyStream size : 117 MiB (20%)Title : [DVO] Tycoon / [DVO] TycoonLanguage : RussianEncoded date : UTC 2016-03-25 12:47:17Tagged date : UTC 2016-03-25 12:47:20


Трекер:  [ 25-Мар-2016 15:30 ]

  

Скачать .torrent

Размер .torrent файла 12 KB


Размер: 582 MB
Хэш (hash) релиза: 2a4c296865981a8dd9bd5fe625757cbf43edae81

Еще никто не оставлял запись к записи скачать торрент [VIDEO] Круто сваренные Hard Boiled . Будь первым!

!Обратная связь