The Woman season 01 episode 23 | Cor Suec,sang Finesa / Corazon Sueco, Sangre Finlandesa | The Defender

Скачать через торрент [VIDEO] Синьор Робинзон Il signor Robinson, mostruosa storia damore e davventure бесплатно русская версия torrent активатор

Статистика раздачи
Размер:  996 MB   |    Зарегистрирован:  2 года 3 месяца   |    .torrent скачан:  37 раз   |   
Раздают:  1  
   
загрузка...
 
Автор Сообщение

Galfimbul

avatar Galfimbul


Синьор Робинзон / Il signor Robinson, mostruosa storia d'amore e d'avventure

Год выпуска: 1976
Страна: Италия
Жанр: мелодрама, комедия, приключения
Продолжительность: 01:43:17
Перевод №1: Профессиональный (полное дублирование) (советский дубляж)
Перевод №2: Профессиональный (многоголосый, закадровый)
Cубтитры: нет
Режиссер: Серджио Корбуччи / Sergio Corbucci
В ролях: Паоло Вилладжо / Paolo Villaggio (Robi), Зеуди Арая Кристальди / Zeudi Araya Cristaldi (в титрах: Zeudi Araya) (Venerdi'), Перси Хоган / Percy Hogan (Mandingo), Анна Ногара / Anna Nogara (Magda) и другие .
Описание: Робинзон Крузо проходит через множество комичных ситуаций, пока ему не удается хоть как-то освоиться на острове. У него появляется даже Пятница — только на этот раз это темнокожая красавица, с которой Робинзон поначалу тщетно пытается найти общий язык.

Современный Робинзон не хочет отказываться от благ цивилизации и придумывает, как заменить телевизор, радио и все то, без чего в наше время трудно представить свою жизнь…
Релиз группы
Качество: DVDRip / <a href="viewtopic.php?t=2933079" class="postLink">рип с DVD5 (Custom)</a> Формат: MP4 Видео кодек: H.264 Аудио кодек: AAC
Видео: 640x352 AR:16/9 1080 kbps 25 fps
Аудио №1: 2ch 48 kHz 128 kbps [Dub] Аудио №2: 2ch 48 kHz 128 kbps [MVO]

Полное название — «Синьор Робинзон, потрясающая история любви и приключений».
Фильм занимает 16-е место по посещаемости среди зарубежных лент в советском кинопрокате..


avs [info]: 640x352p 1:1 @ 25/1 fps (cfr)
x264 [info]: using SAR=1/1
x264 [info]: using cpu capabilities: MMX2 SSE2Fast SSSE3 SSE4.2 LZCNT
x264 [info]: profile High, level 4.1

x264 [info]: frame I:1082 Avg QP:23.03 size: 33903
x264 [info]: frame P:32574 Avg QP:26.28 size: 11799
x264 [info]: frame B:121276 Avg QP:29.37 size: 3429
x264 [info]: consecutive B-frames: 1.5% 2.4% 5.8% 20.9% 15.6% 47.4% 4.9% 0.8% 0.7%
x264 [info]: mb I I16..4: 4.4% 78.7% 16.9%
x264 [info]: mb P I16..4: 0.5% 11.3% 1.5% P16..4: 35.6% 35.6% 12.3% 1.6% 0.2% skip: 1.5%
x264 [info]: mb B I16..4: 0.0% 1.6% 0.2% B16..8: 37.8% 17.2% 2.6% direct: 4.7% skip:35.9% L0:38.0% L1:45.9% BI:16.1%
x264 [info]: 8x8 transform intra:85.3% inter:64.3%
x264 [info]: direct mvs spatial:96.0% temporal:4.0%
x264 [info]: coded y,uvDC,uvAC intra: 95.2% 76.7% 30.3% inter: 26.1% 17.7% 2.1%
x264 [info]: i16 v,h,dc,p: 30% 32% 4% 34%
x264 [info]: i8 v,h,dc,ddl,ddr,vr,hd,vl,hu: 6% 8% 3% 10% 16% 14% 16% 11% 15%
x264 [info]: i4 v,h,dc,ddl,ddr,vr,hd,vl,hu: 10% 7% 2% 8% 15% 15% 15% 12% 15%
x264 [info]: i8c dc,h,v,p: 28% 30% 18% 23%
x264 [info]: Weighted P-Frames: Y:13.7% UV:4.7%
x264 [info]: ref P L0: 43.9% 15.1% 20.0% 5.6% 5.0% 3.2% 3.2% 1.6% 1.9% 0.4% 0.0%
x264 [info]: ref B L0: 86.6% 7.7% 2.3% 1.2% 0.8% 0.7% 0.4% 0.2%
x264 [info]: ref B L1: 97.0% 3.0%
x264 [info]: kb/s:1080.30

x264 [total]: encoded 154932 frames, 10.44 fps, 1080.30 kb/s
GeneralComplete name : D:\Torrents\Il signor Robinson, mostruosa storia d'amore e d'avventure.1976.DVDRip.x264.640x.rip by Frost O.S.mp4Format : MPEG-4Format profile : Base MediaCodec ID : isomFile size : 996 MiBDuration : 1h 43mnOverall bit rate mode : VariableOverall bit rate : 1 348 KbpsMovie name : Il signor Robinson, mostruosa storia d'amore e d'avventure 1976 DVDRip x264 640x rip by Frost O SPerformer : Sergio CorbucciGenre : ComedyContentType : Short FilmEncoded date : UTC 2016-03-22 13:17:58Tagged date : UTC 2016-03-22 13:18:43Writing application : MkvToMp4 version: 0.224 (x64)Cover : YesComment : rip by Frost O.SLongDescription : Популярная в семидесятых/восьмидесятых годах итальянская версия приключений Робинзона Крузо на необитаемом острове. / Герой фильма - текстильный магнат и владелец сетей магазинов готового платья Роберто (Робби), вместе со своей супругой Магдой отправляется в морское путешествие. Чудом уцелев после кораблекрушения, невезучий путешественник попадает на необитаемый остров. После тщетных и комических попыток добыть себе пропитание и обустроить свой быт, Робби находит дом другого Робинзона - своего предшественника. Вскоре на острове появляется симпатичная аборигенка, с которой синьору Робинзону предстоит найти общий язык, и разделить своё одиночество. Экзотическую красавицу Робби называет Пятницей. Современный Робинзон не хочет отказываться от благ цивилизации и придумывает, как заменить телевизор, радио и все то, без чего в наше время трудно представить свою жизнь… Робби жаждет заняться сексом с темнокожей красавицей, но Пятница отказывает Робби. Она сможет сделать это только после появления второй луны. Но, когда понимание вроде бы достигнуто, и очаровательная аборигенша вот-вот окажется в его объятиях, в их судьбу вмешиваются небесные силы, в виде сурового каменного бога Магду, низвергающего на несчастных грешников гром и молнии, чье лицо удивительным образом похоже на лицо жены сеньора Робинзона - Магды... Появляется вторая луна, и влюблённые падают друг другу в объятия, но тут появляется приплывший на остров Мандинго, жених Пятницы...

VideoID : 1Format : AVCFormat/Info : Advanced Video CodecFormat profile : [email protected] settings, CABAC : YesFormat settings, ReFrames : 9 framesCodec ID : avc1Codec ID/Info : Advanced Video CodingDuration : 1h 43mnBit rate : 1 080 KbpsMaximum bit rate : 7 088 KbpsWidth : 640 pixelsHeight : 352 pixelsDisplay aspect ratio : 16:9Frame rate mode : ConstantFrame rate : 25.000 fpsColor space : YUVChroma subsampling : 4:2:0Bit depth : 8 bitsScan type : ProgressiveBits/(Pixel*Frame) : 0.192Stream size : 798 MiB (80%)Writing library : x264 core 130 r2273 b3065e6Encoding settings : cabac=1 / ref=9 / deblock=1:-1:-1 / analyse=0x3:0x133 / me=umh / subme=11 / psy=1 / psy_rd=1.00:0.15 / mixed_ref=1 / me_range=48 / chroma_me=1 / trellis=2 / 8x8dct=1 / cqm=0 / deadzone=21,11 / fast_pskip=0 / chroma_qp_offset=-3 / threads=3 / lookahead_threads=1 / sliced_threads=0 / nr=0 / decimate=0 / interlaced=0 / bluray_compat=0 / constrained_intra=0 / bframes=8 / b_pyramid=2 / b_adapt=2 / b_bias=0 / direct=3 / weightb=1 / open_gop=0 / weightp=2 / keyint=250 / keyint_min=25 / scenecut=40 / intra_refresh=0 / rc_lookahead=60 / rc=2pass / mbtree=1 / bitrate=1080 / ratetol=1.0 / qcomp=0.70 / qpmin=0 / qpmax=69 / qpstep=4 / cplxblur=20.0 / qblur=0.5 / ip_ratio=1.40 / aq=1:1.00Language : EnglishEncoded date : UTC 2016-03-22 13:17:58Tagged date : UTC 2016-03-22 13:18:13Color primaries : BT.601 PALTransfer characteristics : BT.470 System B, BT.470 System GMatrix coefficients : BT.601Color range : Limited

Audio #1ID : 2Format : AACFormat/Info : Advanced Audio CodecFormat profile : LCCodec ID : 40Duration : 1h 43mnBit rate mode : VariableBit rate : 128 KbpsMaximum bit rate : 134 KbpsChannel(s) : 2 channelsChannel positions : Front: L RSampling rate : 48.0 KHzCompression mode : LossyStream size : 94.6 MiB (9%)Title : Rus Sovetskiy Dublyazh / Rus Sovetskiy DublyazhLanguage : RussianEncoded date : UTC 2016-03-22 13:18:08Tagged date : UTC 2016-03-22 13:18:13

Audio #2ID : 3Format : AACFormat/Info : Advanced Audio CodecFormat profile : LCCodec ID : 40Duration : 1h 43mnBit rate mode : VariableBit rate : 128 KbpsMaximum bit rate : 132 KbpsChannel(s) : 2 channelsChannel positions : Front: L RSampling rate : 48.0 KHzCompression mode : LossyStream size : 94.6 MiB (9%)Title : Rus MVO / Rus MVOLanguage : RussianEncoded date : UTC 2016-03-22 13:18:11Tagged date : UTC 2016-03-22 13:18:13


Трекер:  [ 22-Мар-2016 16:30 ]

  

Скачать .torrent

Размер .torrent файла 20 KB


Размер: 996 MB
Хэш (hash) релиза: 234a8eb1be396a01038540d857c34866e1d4079b

Еще никто не оставлял запись к записи скачать торрент [VIDEO] Синьор Робинзон Il signor Robinson, mostruosa storia damore e davventure . Будь первым!

!Обратная связь