Breaking In | Lucie Vondrácková | Stream Link 3

Скачать через торрент музыку Сказание о принцессе Кагуя Kaguya-hime no Monogatari бесплатно без регистрации torrent

Статистика раздачи
Размер:  270 MB   |    Зарегистрирован:  2 года 4 месяца   |    .torrent скачан:  33 раза   |   
Раздают:  1  
   
загрузка...
 
Автор Сообщение

Galfimbul

avatar Galfimbul


Kaguyahime no Monogatari Soundtrack

'

Название альбома: Kaguyahime no Monogatari Soundtrack
Композитор: Joe Hisaishi, Isao Takahata
Носитель: CD
Страна-производитель диска (релиза): Япония
Год издания: 2013
Издатель (лейбл): Studio Ghibli Records, Tokuma Japan Communications
Номер по каталогу: TKCA-74030
Аудиокодек: FLAC (*.flac)
Тип рипа: tracks+.cue
Битрейт аудио: lossless
Продолжительность: 52:45
Источник: за идеальный рип большое спасибо LukePapyrus
Наличие сканов в содержимом раздачи: да'Состав:

Composition, Arrangement, Produce Joe Hisaishi

Conducted by Joe Hisaishi
Piano Joe Hisaishi (Track 12, 31, 33)
Performance Tokyo Symphony Orchestra – Guest Concertmaster Kaoru Kondo
Lute Hiroshi Kaneko (Track 10, 15, 26, 28)
Guzheng Xiao-Qing Jiang (Track 18, 23, 35)

Tenjin no Ongaku (Track 30, 32)

Whistle Hideyo Takakuwa
Charango Masahiro Itami
Guitar Masayoshi Furukawa
Celtic Harp & Harp Kazuko Shinozaki
W. Bass Yoshinobu Takeshita
Percussion Ikuo Kakehashi, Tamao Fujii
Hichiriki Motonori Miura
Dragon Flute Jun Akaru

Inochi no Kioku (Track 34)

Performer Kazumi Nikaido
Composer Kazumi Nikaido
Lyricist Kazumi Nikaido

Warabe Uta (Track 36), Tennyo no Uta (Track 37)

Composer Isao Takahata
Lyricist Isao Takahata, Riko Sakaguchi
01 Hajimari / Overture 0:54
02 Hikari / Light 0:22
03 Chiisaki Hime / The Little Princess 1:15
04 Ikiru Yorokobi / The Joy of Living 1:01
05 Mebae / The Sprout 2:20
06 Takenoko / Li'l Bamboo 2:06
07 Inochi / Life 1:00
08 Yamasato / Mountain Hamlet 1:54
09 Koromo / Robe 0:34
10 Tabidachi / Setting Out 1:20
11 Aki no Minori / Autumn Harvest 0:39
12 Nayotake / Supple Bamboo 1:23
13 Tenarai / Writing Practice 0:48
14 Inochi no Niwa / The Garden of Life 0:25
15 Utage / The Banquet 1:23
16 Zetsubou / Despair 1:07
17 Haru no Meguri / The Coming of Spring 1:03
18 Utsukushiki Koto no Shirabe / Melody of the Beautiful Koto 0:35
19 Haru no Waltz / Spring Waltz 2:02
20 Sato e no Omoi / Memories of the Village 1:36
21 Kouki na Okata no Rhapsody / The Nobles’ Wild Ride 1:29
22 Magokoro / Devotion 1:29
23 Higurashi no Yoru / Cicada Night 1:12
24 Tsuki no Fushigi / Mystery of the Moon 0:49
25 Kanashimi / Sorrow 1:01
26 Sadame / Fate 1:18
27 Tsuki no Miyako / The City of the Moon 0:29
28 Kikyou / Going Home 1:20
29 Hishou / Flying 4:26
30 Tenjin no Ongaku I / The Procession of Celestial Beings I 2:29
31 Wakare / The Parting 1:07
32 Tenjin no Ongaku II / The Procession of Celestial Beings II 0:58
33 Tsuki / Moon 1:49
34 Inochi no Kioku / When I Remember This Life 5:42
35 Koto no Shirabe / Koto Melody 0:57
36 Warabe Uta / Nursery Rhyme 0:49
37 Tennyo no Uta / Song of the Heavenly Maiden 1:34
Exact Audio Copy V1.0 beta 4 from 7. December 2014

EAC extraction logfile from 11. May 2015, 19:21

Joe Hisaishi 久石譲 / The Tale of the Princess Kaguya かぐや姫の物語

Used drive : PIONEER BD-RW BDR-209M Adapter: 1 ID: 0

Read mode : SecureUtilize accurate stream : YesDefeat audio cache : YesMake use of C2 pointers : No

Read offset correction : 667Overread into Lead-In and Lead-Out : NoFill up missing offset samples with silence : YesDelete leading and trailing silent blocks : NoNull samples used in CRC calculations : YesUsed interface : Native Win32 interface for Win NT & 2000Gap handling : Appended to previous track

Used output format : User Defined EncoderSelected bitrate : 1024 kBit/sQuality : HighAdd ID3 tag : NoCommand line compressor : C:\Program Files (x86)\Exact Audio Copy\Flac\flac.exeAdditional command line options : -8 -V -T "artist=%artist%" -T "title=%title%" -T "album=%albumtitle%" -T "date=%year%" -T "tracknumber=%tracknr%" -T "genre=%genre%" -T "album artist=%albumartist%" -T "albumartist=%albumartist%" -T "COMMENT=%comment%" %source%

TOC of the extracted CD

Track | Start | Length | Start sector | End sector --------------------------------------------------------- 1 | 0:00.00 | 0:53.69 | 0 | 4043 2 | 0:53.69 | 0:22.09 | 4044 | 5702 3 | 1:16.03 | 1:15.33 | 5703 | 11360 4 | 2:31.36 | 1:01.26 | 11361 | 15961 5 | 3:32.62 | 2:19.63 | 15962 | 26449 6 | 5:52.50 | 2:06.14 | 26450 | 35913 7 | 7:58.64 | 0:59.70 | 35914 | 40408 8 | 8:58.59 | 1:53.42 | 40409 | 48925 9 | 10:52.26 | 0:34.07 | 48926 | 51482 10 | 11:26.33 | 1:19.53 | 51483 | 57460 11 | 12:46.11 | 0:39.12 | 57461 | 60397 12 | 13:25.23 | 1:22.50 | 60398 | 66597 13 | 14:47.73 | 0:47.49 | 66598 | 70171 14 | 15:35.47 | 0:25.27 | 70172 | 72073 15 | 16:00.74 | 1:22.47 | 72074 | 78270 16 | 17:23.46 | 1:07.31 | 78271 | 83326 17 | 18:31.02 | 1:03.33 | 83327 | 88084 18 | 19:34.35 | 0:34.41 | 88085 | 90675 19 | 20:09.01 | 2:02.32 | 90676 | 99857 20 | 22:11.33 | 1:36.26 | 99858 | 107083 21 | 23:47.59 | 1:29.27 | 107084 | 113785 22 | 25:17.11 | 1:28.53 | 113786 | 120438 23 | 26:45.64 | 1:12.03 | 120439 | 125841 24 | 27:57.67 | 0:48.42 | 125842 | 129483 25 | 28:46.34 | 1:00.52 | 129484 | 134035 26 | 29:47.11 | 1:17.57 | 134036 | 139867 27 | 31:04.68 | 0:28.56 | 139868 | 142023 28 | 31:33.49 | 1:19.55 | 142024 | 148003 29 | 32:53.29 | 4:26.13 | 148004 | 167966 30 | 37:19.42 | 2:28.67 | 167967 | 179133 31 | 39:48.34 | 1:07.29 | 179134 | 184187 32 | 40:55.63 | 0:57.48 | 184188 | 188510 33 | 41:53.36 | 1:49.07 | 188511 | 196692 34 | 43:42.43 | 5:42.26 | 196693 | 222368 35 | 49:24.69 | 0:57.22 | 222369 | 226665 36 | 50:22.16 | 0:48.43 | 226666 | 230308 37 | 51:10.59 | 1:34.05 | 230309 | 237363

Track 1

Filename E:\uTorrent\cache\Joe Hisaishi - The Tale of the Princess Kaguya (2013) - FLAC\01 - はじまり.wav

Pre-gap length 0:00:02.00

Peak level 49.2 % Extraction speed 1.0 X Track quality 100.0 % Test CRC 53A2B961 Copy CRC 53A2B961 Accurately ripped (confidence 10) [10DC35F7] (AR v2) Copy OK

Track 2

Filename E:\uTorrent\cache\Joe Hisaishi - The Tale of the Princess Kaguya (2013) - FLAC\02 - 光り.wav

Peak level 71.3 % Extraction speed 0.6 X Track quality 100.0 % Test CRC C991E624 Copy CRC C991E624 Accurately ripped (confidence 10) [5CA60BC1] (AR v2) Copy OK

Track 3

Filename E:\uTorrent\cache\Joe Hisaishi - The Tale of the Princess Kaguya (2013) - FLAC\03 - 小さき姫.wav

Peak level 39.9 % Extraction speed 1.2 X Track quality 100.0 % Test CRC AC002043 Copy CRC AC002043 Accurately ripped (confidence 10) [73093CBF] (AR v2) Copy OK

Track 4

Filename E:\uTorrent\cache\Joe Hisaishi - The Tale of the Princess Kaguya (2013) - FLAC\04 - 生きる喜び.wav

Peak level 44.2 % Extraction speed 1.2 X Track quality 100.0 % Test CRC 5BAF0454 Copy CRC 5BAF0454 Accurately ripped (confidence 10) [2F6A806F] (AR v2) Copy OK

Track 5

Filename E:\uTorrent\cache\Joe Hisaishi - The Tale of the Princess Kaguya (2013) - FLAC\05 - 芽生え.wav

Peak level 100.0 % Extraction speed 1.6 X Track quality 100.0 % Test CRC 7742A105 Copy CRC 7742A105 Accurately ripped (confidence 10) [ED9D6C87] (AR v2) Copy OK

Track 6

Filename E:\uTorrent\cache\Joe Hisaishi - The Tale of the Princess Kaguya (2013) - FLAC\06 - タケノコ.wav

Peak level 100.0 % Extraction speed 1.6 X Track quality 100.0 % Test CRC 4A615FA0 Copy CRC 4A615FA0 Accurately ripped (confidence 10) [7F117439] (AR v2) Copy OK

Track 7

Filename E:\uTorrent\cache\Joe Hisaishi - The Tale of the Princess Kaguya (2013) - FLAC\07 - 生命.wav

Peak level 80.7 % Extraction speed 1.4 X Track quality 100.0 % Test CRC 941A4FBC Copy CRC 941A4FBC Accurately ripped (confidence 10) [D3570E68] (AR v2) Copy OK

Track 8

Filename E:\uTorrent\cache\Joe Hisaishi - The Tale of the Princess Kaguya (2013) - FLAC\08 - 山里.wav

Pre-gap length 0:00:01.25

Peak level 61.0 % Extraction speed 1.7 X Track quality 100.0 % Test CRC 08CA95F8 Copy CRC 08CA95F8 Accurately ripped (confidence 10) [CCAAA00E] (AR v2) Copy OK

Track 9

Filename E:\uTorrent\cache\Joe Hisaishi - The Tale of the Princess Kaguya (2013) - FLAC\09 - 衣.wav

Peak level 100.0 % Extraction speed 1.1 X Track quality 100.0 % Test CRC 46763649 Copy CRC 46763649 Accurately ripped (confidence 10) [058F0197] (AR v2) Copy OK

Track 10

Filename E:\uTorrent\cache\Joe Hisaishi - The Tale of the Princess Kaguya (2013) - FLAC\10 - 旅立ち.wav

Pre-gap length 0:00:01.25

Peak level 87.5 % Extraction speed 1.6 X Track quality 100.0 % Test CRC 516A9A6E Copy CRC 516A9A6E Accurately ripped (confidence 10) [060D08EA] (AR v2) Copy OK

Track 11

Filename E:\uTorrent\cache\Joe Hisaishi - The Tale of the Princess Kaguya (2013) - FLAC\11 - 秋の実り.wav

Peak level 82.3 % Extraction speed 0.8 X Track quality 99.7 % Test CRC 15F823AC Copy CRC 15F823AC Accurately ripped (confidence 10) [F77CB53C] (AR v2) Copy OK

Track 12

Filename E:\uTorrent\cache\Joe Hisaishi - The Tale of the Princess Kaguya (2013) - FLAC\12 - なよたけ.wav

Pre-gap length 0:00:01.25

Peak level 69.4 % Extraction speed 1.3 X Track quality 99.8 % Test CRC 14AB901A Copy CRC 14AB901A Accurately ripped (confidence 10) [573BDB5F] (AR v2) Copy OK

Track 13

Filename E:\uTorrent\cache\Joe Hisaishi - The Tale of the Princess Kaguya (2013) - FLAC\13 - 手習い.wav

Pre-gap length 0:00:00.25

Peak level 72.4 % Extraction speed 1.4 X Track quality 100.0 % Test CRC 995E6872 Copy CRC 995E6872 Accurately ripped (confidence 10) [B383E7CF] (AR v2) Copy OK

Track 14

Filename E:\uTorrent\cache\Joe Hisaishi - The Tale of the Princess Kaguya (2013) - FLAC\14 - 生命の庭.wav

Peak level 44.9 % Extraction speed 1.0 X Track quality 100.0 % Test CRC 58C5B336 Copy CRC 58C5B336 Accurately ripped (confidence 10) [F6333D60] (AR v2) Copy OK

Track 15

Filename E:\uTorrent\cache\Joe Hisaishi - The Tale of the Princess Kaguya (2013) - FLAC\15 - 宴.wav

Pre-gap length 0:00:00.25

Peak level 33.0 % Extraction speed 1.3 X Track quality 99.8 % Test CRC 0D9E6709 Copy CRC 0D9E6709 Accurately ripped (confidence 10) [EA81206D] (AR v2) Copy OK

Track 16

Filename E:\uTorrent\cache\Joe Hisaishi - The Tale of the Princess Kaguya (2013) - FLAC\16 - 絶望.wav

Peak level 100.0 % Extraction speed 1.6 X Track quality 100.0 % Test CRC CC284E45 Copy CRC CC284E45 Accurately ripped (confidence 10) [9C989515] (AR v2) Copy OK

Track 17

Filename E:\uTorrent\cache\Joe Hisaishi - The Tale of the Princess Kaguya (2013) - FLAC\17 - 春のめぐり.wav

Pre-gap length 0:00:03.25

Peak level 41.1 % Extraction speed 1.6 X Track quality 100.0 % Test CRC 2DE04EA4 Copy CRC 2DE04EA4 Accurately ripped (confidence 10) [E1367F58] (AR v2) Copy OK

Track 18

Filename E:\uTorrent\cache\Joe Hisaishi - The Tale of the Princess Kaguya (2013) - FLAC\18 - 美しき琴の調べ.wav

Pre-gap length 0:00:00.63

Peak level 41.9 % Extraction speed 1.2 X Track quality 100.0 % Test CRC A24BEB86 Copy CRC A24BEB86 Accurately ripped (confidence 10) [B9DC77C7] (AR v2) Copy OK

Track 19

Filename E:\uTorrent\cache\Joe Hisaishi - The Tale of the Princess Kaguya (2013) - FLAC\19 - 春のワルツ.wav

Peak level 100.0 % Extraction speed 2.1 X Track quality 100.0 % Test CRC 1094E94A Copy CRC 1094E94A Accurately ripped (confidence 10) [5FB1D404] (AR v2) Copy OK

Track 20

Filename E:\uTorrent\cache\Joe Hisaishi - The Tale of the Princess Kaguya (2013) - FLAC\20 - 里への想い.wav

Pre-gap length 0:00:00.25

Peak level 64.8 % Extraction speed 2.0 X Track quality 100.0 % Test CRC 93953870 Copy CRC 93953870 Accurately ripped (confidence 10) [FA6C5C38] (AR v2) Copy OK

Track 21

Filename E:\uTorrent\cache\Joe Hisaishi - The Tale of the Princess Kaguya (2013) - FLAC\21 - 高貴なお方の狂騒曲.wav

Pre-gap length 0:00:02.25

Peak level 100.0 % Extraction speed 2.0 X Track quality 100.0 % Test CRC 204C10E0 Copy CRC 204C10E0 Accurately ripped (confidence 10) [8633036D] (AR v2) Copy OK

Track 22

Filename E:\uTorrent\cache\Joe Hisaishi - The Tale of the Princess Kaguya (2013) - FLAC\22 - 真心.wav

Pre-gap length 0:00:00.25

Peak level 40.0 % Extraction speed 2.0 X Track quality 100.0 % Test CRC 18187BBD Copy CRC 18187BBD Accurately ripped (confidence 10) [53198D4D] (AR v2) Copy OK

Track 23

Filename E:\uTorrent\cache\Joe Hisaishi - The Tale of the Princess Kaguya (2013) - FLAC\23 - 蜩の夜.wav

Pre-gap length 0:00:00.62

Peak level 36.1 % Extraction speed 1.4 X Track quality 99.8 % Test CRC A7A29BC2 Copy CRC A7A29BC2 Accurately ripped (confidence 10) [C9DF8752] (AR v2) Copy OK

Track 24

Filename E:\uTorrent\cache\Joe Hisaishi - The Tale of the Princess Kaguya (2013) - FLAC\24 - 月の不思議.wav

Peak level 73.7 % Extraction speed 1.6 X Track quality 100.0 % Test CRC 09D801C2 Copy CRC 09D801C2 Accurately ripped (confidence 10) [DC6C472F] (AR v2) Copy OK

Track 25

Filename E:\uTorrent\cache\Joe Hisaishi - The Tale of the Princess Kaguya (2013) - FLAC\25 - 悲しみ.wav

Peak level 31.1 % Extraction speed 1.8 X Track quality 100.0 % Test CRC 6B3AFE50 Copy CRC 6B3AFE50 Accurately ripped (confidence 10) [DE4DB735] (AR v2) Copy OK

Track 26

Filename E:\uTorrent\cache\Joe Hisaishi - The Tale of the Princess Kaguya (2013) - FLAC\26 - 運命.wav

Peak level 27.5 % Extraction speed 2.0 X Track quality 100.0 % Test CRC A7048752 Copy CRC A7048752 Accurately ripped (confidence 10) [43C178A7] (AR v2) Copy OK

Track 27

Filename E:\uTorrent\cache\Joe Hisaishi - The Tale of the Princess Kaguya (2013) - FLAC\27 - 月の都.wav

Peak level 28.8 % Extraction speed 1.3 X Track quality 100.0 % Test CRC 2C201C7F Copy CRC 2C201C7F Accurately ripped (confidence 10) [6E720D53] (AR v2) Copy OK

Track 28

Filename E:\uTorrent\cache\Joe Hisaishi - The Tale of the Princess Kaguya (2013) - FLAC\28 - 帰郷.wav

Pre-gap length 0:00:00.25

Peak level 62.4 % Extraction speed 2.1 X Track quality 100.0 % Test CRC E2FD3900 Copy CRC E2FD3900 Accurately ripped (confidence 10) [715A3CFB] (AR v2) Copy OK

Track 29

Filename E:\uTorrent\cache\Joe Hisaishi - The Tale of the Princess Kaguya (2013) - FLAC\29 - 飛翔.wav

Pre-gap length 0:00:01.25

Peak level 100.0 % Extraction speed 2.8 X Track quality 100.0 % Test CRC 8716E3F4 Copy CRC 8716E3F4 Accurately ripped (confidence 10) [D53CE83C] (AR v2) Copy OK

Track 30

Filename E:\uTorrent\cache\Joe Hisaishi - The Tale of the Princess Kaguya (2013) - FLAC\30 - 天人の音楽 I.wav

Pre-gap length 0:00:03.25

Peak level 100.0 % Extraction speed 2.6 X Track quality 100.0 % Test CRC 8EC53F9A Copy CRC 8EC53F9A Accurately ripped (confidence 10) [E078B1BC] (AR v2) Copy OK

Track 31

Filename E:\uTorrent\cache\Joe Hisaishi - The Tale of the Princess Kaguya (2013) - FLAC\31 - 別離.wav

Pre-gap length 0:00:01.25

Peak level 52.7 % Extraction speed 1.5 X Track quality 99.8 % Test CRC 4B1CB41E Copy CRC 4B1CB41E Accurately ripped (confidence 10) [D5E78CD3] (AR v2) Copy OK

Track 32

Filename E:\uTorrent\cache\Joe Hisaishi - The Tale of the Princess Kaguya (2013) - FLAC\32 - 天人の音楽 II.wav

Pre-gap length 0:00:00.25

Peak level 100.0 % Extraction speed 2.0 X Track quality 100.0 % Test CRC DEBCD07E Copy CRC DEBCD07E Accurately ripped (confidence 10) [1659D011] (AR v2) Copy OK

Track 33

Filename E:\uTorrent\cache\Joe Hisaishi - The Tale of the Princess Kaguya (2013) - FLAC\33 - 月.wav

Peak level 61.3 % Extraction speed 2.5 X Track quality 100.0 % Test CRC B8E64B5F Copy CRC B8E64B5F Accurately ripped (confidence 10) [E7066602] (AR v2) Copy OK

Track 34

Filename E:\uTorrent\cache\Joe Hisaishi - The Tale of the Princess Kaguya (2013) - FLAC\34 - いのちの記憶.wav

Pre-gap length 0:00:05.25

Peak level 70.7 % Extraction speed 3.2 X Track quality 100.0 % Test CRC 9C55DDF7 Copy CRC 9C55DDF7 Accurately ripped (confidence 10) [C3FC7269] (AR v2) Copy OK

Track 35

Filename E:\uTorrent\cache\Joe Hisaishi - The Tale of the Princess Kaguya (2013) - FLAC\35 - 琴の調べ.wav

Pre-gap length 0:00:02.25

Peak level 44.4 % Extraction speed 2.1 X Track quality 100.0 % Test CRC AF5C3C0A Copy CRC AF5C3C0A Accurately ripped (confidence 10) [14780EFE] (AR v2) Copy OK

Track 36

Filename E:\uTorrent\cache\Joe Hisaishi - The Tale of the Princess Kaguya (2013) - FLAC\36 - わらべ唄.wav

Peak level 47.5 % Extraction speed 2.0 X Track quality 100.0 % Test CRC ED3F9D6C Copy CRC ED3F9D6C Accurately ripped (confidence 10) [73393607] (AR v2) Copy OK

Track 37

Filename E:\uTorrent\cache\Joe Hisaishi - The Tale of the Princess Kaguya (2013) - FLAC\37 - 天女の歌.wav

Pre-gap length 0:00:01.25

Peak level 49.1 % Extraction speed 2.6 X Track quality 100.0 % Test CRC 9D59D4FB Copy CRC 9D59D4FB Accurately ripped (confidence 10) [CB4397EB] (AR v2) Copy OK

All tracks accurately ripped

No errors occurred

End of status report

---- CUETools DB Plugin V2.1.4

[CTDB TOCID: .CF8q7_6Z_pXyT7sKctRFo6X_MA-] foundSubmit result: .CF8q7_6Z_pXyT7sKctRFo6X_MA- has been confirmedTrack | CTDB Status 1 | (22/22) Accurately ripped 2 | (22/22) Accurately ripped 3 | (22/22) Accurately ripped 4 | (22/22) Accurately ripped 5 | (22/22) Accurately ripped 6 | (22/22) Accurately ripped 7 | (22/22) Accurately ripped 8 | (22/22) Accurately ripped 9 | (22/22) Accurately ripped 10 | (22/22) Accurately ripped 11 | (22/22) Accurately ripped 12 | (22/22) Accurately ripped 13 | (22/22) Accurately ripped 14 | (22/22) Accurately ripped 15 | (22/22) Accurately ripped 16 | (22/22) Accurately ripped 17 | (22/22) Accurately ripped 18 | (22/22) Accurately ripped 19 | (22/22) Accurately ripped 20 | (22/22) Accurately ripped 21 | (22/22) Accurately ripped 22 | (22/22) Accurately ripped 23 | (22/22) Accurately ripped 24 | (22/22) Accurately ripped 25 | (22/22) Accurately ripped 26 | (22/22) Accurately ripped 27 | (22/22) Accurately ripped 28 | (22/22) Accurately ripped 29 | (22/22) Accurately ripped 30 | (22/22) Accurately ripped 31 | (22/22) Accurately ripped 32 | (22/22) Accurately ripped 33 | (22/22) Accurately ripped 34 | (22/22) Accurately ripped 35 | (22/22) Accurately ripped 36 | (22/22) Accurately ripped 37 | (22/22) Accurately ripped

==== Log checksum A6F709F2645C0479F718B909C64D4DA75DF29CCCD6B4E9723897691FE0DF479B ====
REM GENRE AnimeREM DATE 2013REM DISCID 240C5C25REM COMMENT "ExactAudioCopy v1.0b4"PERFORMER "Joe Hisaishi"TITLE "Kaguyahime no Monogatari Soundtrack"FILE "01. Hajimari - Overture.wav" WAVE TRACK 01 AUDIO TITLE "Hajimari" PERFORMER "Joe Hisaishi" INDEX 01 00:00:00FILE "02. Hikari - Light.wav" WAVE TRACK 02 AUDIO TITLE "Hikari" PERFORMER "Joe Hisaishi" INDEX 01 00:00:00FILE "03. Chiisaki Hime - The Little Princess.wav" WAVE TRACK 03 AUDIO TITLE "Chiisaki Hime" PERFORMER "Joe Hisaishi" INDEX 01 00:00:00FILE "04. Ikiru Yorokobi - The Joy of Living.wav" WAVE TRACK 04 AUDIO TITLE "Ikiru Yorokobi" PERFORMER "Joe Hisaishi" INDEX 01 00:00:00FILE "05. Mebae - The Sprout.wav" WAVE TRACK 05 AUDIO TITLE "Mebae" PERFORMER "Joe Hisaishi" INDEX 01 00:00:00FILE "06. Takenoko - Li'l Bamboo.wav" WAVE TRACK 06 AUDIO TITLE "Takenoko" PERFORMER "Joe Hisaishi" INDEX 01 00:00:00FILE "07. Inochi - Life.wav" WAVE TRACK 07 AUDIO TITLE "Inochi" PERFORMER "Joe Hisaishi" INDEX 01 00:00:00 TRACK 08 AUDIO TITLE "Yamasato" PERFORMER "Joe Hisaishi" INDEX 00 00:58:45FILE "08. Yamasato - Mountain Hamlet.wav" WAVE INDEX 01 00:00:00FILE "09. Koromo - Robe.wav" WAVE TRACK 09 AUDIO TITLE "Koromo" PERFORMER "Joe Hisaishi" INDEX 01 00:00:00 TRACK 10 AUDIO TITLE "Tabidachi" PERFORMER "Joe Hisaishi" INDEX 00 00:32:57FILE "10. Tabidachi - Setting Out.wav" WAVE INDEX 01 00:00:00FILE "11. Aki no Minori - Autumn Harvest.wav" WAVE TRACK 11 AUDIO TITLE "Aki no Minori" PERFORMER "Joe Hisaishi" INDEX 01 00:00:00 TRACK 12 AUDIO TITLE "Nayotake" PERFORMER "Joe Hisaishi" INDEX 00 00:37:62FILE "12. Nayotake - Supple Bamboo.wav" WAVE INDEX 01 00:00:00 TRACK 13 AUDIO TITLE "Tenarai" PERFORMER "Joe Hisaishi" INDEX 00 01:22:25FILE "13. Tenarai - Writing Practice.wav" WAVE INDEX 01 00:00:00FILE "14. Inochi no Niwa - The Garden of Life.wav" WAVE TRACK 14 AUDIO TITLE "Inochi no Niwa" PERFORMER "Joe Hisaishi" INDEX 01 00:00:00 TRACK 15 AUDIO TITLE "Utage" PERFORMER "Joe Hisaishi" INDEX 00 00:25:02FILE "15. Utage - The Banquet.wav" WAVE INDEX 01 00:00:00FILE "16. Zetsubou - Despair.wav" WAVE TRACK 16 AUDIO TITLE "Zetsubou" PERFORMER "Joe Hisaishi" INDEX 01 00:00:00 TRACK 17 AUDIO TITLE "Haru no Meguri" PERFORMER "Joe Hisaishi" INDEX 00 01:04:06FILE "17. Haru no Meguri - The Coming of Spring.wav" WAVE INDEX 01 00:00:00 TRACK 18 AUDIO TITLE "Utsukushiki Koto no Shirabe" PERFORMER "Joe Hisaishi" INDEX 00 01:02:45FILE "18. Utsukushiki Koto no Shirabe - Melody of the Beautiful Koto.wav" WAVE INDEX 01 00:00:00FILE "19. Haru no Waltz - Spring Waltz.wav" WAVE TRACK 19 AUDIO TITLE "Haru no Waltz" PERFORMER "Joe Hisaishi" INDEX 01 00:00:00 TRACK 20 AUDIO TITLE "Sato e no Omoi" PERFORMER "Joe Hisaishi" INDEX 00 02:02:07FILE "20. Sato e no Omoi - Memories of the Village.wav" WAVE INDEX 01 00:00:00 TRACK 21 AUDIO TITLE "Kouki na Okata no Rhapsody" PERFORMER "Joe Hisaishi" INDEX 00 01:34:01FILE "21. Kouki na Okata no Rhapsody - The Nobles’ Wild Ride.wav" WAVE INDEX 01 00:00:00 TRACK 22 AUDIO TITLE "Magokoro" PERFORMER "Joe Hisaishi" INDEX 00 01:29:02FILE "22. Magokoro - Devotion.wav" WAVE INDEX 01 00:00:00 TRACK 23 AUDIO TITLE "Higurashi no Yoru" PERFORMER "Joe Hisaishi" INDEX 00 01:27:66FILE "23. Higurashi no Yoru - Cicada Night.wav" WAVE INDEX 01 00:00:00FILE "24. Tsuki no Fushigi - Mystery of the Moon.wav" WAVE TRACK 24 AUDIO TITLE "Tsuki no Fushigi" PERFORMER "Joe Hisaishi" INDEX 01 00:00:00FILE "25. Kanashimi - Sorrow.wav" WAVE TRACK 25 AUDIO TITLE "Kanashimi" PERFORMER "Joe Hisaishi" INDEX 01 00:00:00FILE "26. Sadame - Fate.wav" WAVE TRACK 26 AUDIO TITLE "Sadame" PERFORMER "Joe Hisaishi" INDEX 01 00:00:00FILE "27. Tsuki no Miyako - The City of the Moon.wav" WAVE TRACK 27 AUDIO TITLE "Tsuki no Miyako" PERFORMER "Joe Hisaishi" INDEX 01 00:00:00 TRACK 28 AUDIO TITLE "Kikyou" PERFORMER "Joe Hisaishi" INDEX 00 00:28:31FILE "28. Kikyou - Going Home.wav" WAVE INDEX 01 00:00:00 TRACK 29 AUDIO TITLE "Hishou" PERFORMER "Joe Hisaishi" INDEX 00 01:18:30FILE "29. Hishou - Flying.wav" WAVE INDEX 01 00:00:00 TRACK 30 AUDIO TITLE "Tenjin no Ongaku I" PERFORMER "Joe Hisaishi" INDEX 00 04:22:63FILE "30. Tenjin no Ongaku I - The Procession of Celestial Beings I.wav" WAVE INDEX 01 00:00:00 TRACK 31 AUDIO TITLE "Wakare" PERFORMER "Joe Hisaishi" INDEX 00 02:27:42FILE "31. Wakare - The Parting.wav" WAVE INDEX 01 00:00:00 TRACK 32 AUDIO TITLE "Tenjin no Ongaku II" PERFORMER "Joe Hisaishi" INDEX 00 01:07:04FILE "32. Tenjin no Ongaku II - The Procession of Celestial Beings II.wav" WAVE INDEX 01 00:00:00FILE "33. Tsuki - Moon.wav" WAVE TRACK 33 AUDIO TITLE "Tsuki" PERFORMER "Joe Hisaishi" INDEX 01 00:00:00 TRACK 34 AUDIO TITLE "Inochi no Kioku" PERFORMER "Joe Hisaishi" INDEX 00 01:43:57FILE "34. Inochi no Kioku - When I Remember This Life.wav" WAVE INDEX 01 00:00:00 TRACK 35 AUDIO TITLE "Koto no Shirabe" PERFORMER "Joe Hisaishi" INDEX 00 05:40:01FILE "35. Koto no Shirabe - Koto Melody.wav" WAVE INDEX 01 00:00:00FILE "36. Warabe Uta - Nursery Rhyme.wav" WAVE TRACK 36 AUDIO TITLE "Warabe Uta" PERFORMER "Joe Hisaishi" INDEX 01 00:00:00 TRACK 37 AUDIO TITLE "Tennyo no Uta" PERFORMER "Joe Hisaishi" INDEX 00 00:47:18FILE "37. Tennyo no Uta - Song of the Heavenly Maiden.wav" WAVE INDEX 01 00:00:00


Трекер:  [ 15-Мар-2016 05:00 ]

  

Скачать .torrent

Размер .torrent файла 14 KB


Размер: 270 MB
Хэш (hash) релиза: ac1bd7869fb4a88af92232da124745e065dd157e

Еще никто не оставлял запись к записи скачать торрент Сказание о принцессе Кагуя Kaguya-hime no Monogatari . Будь первым!

!Обратная связь