Es war einmal … Amerika | Apocalypse The Second World War | 24 Hours to Live (2017)

Скачать через торрент [VIDEO] Скарлетт Scarlett бесплатно русская версия torrent активатор

Статистика раздачи
Размер:  4.27 GB   |    Зарегистрирован:  2 года 4 месяца   |    .torrent скачан:  23 раза   |   
Раздают:  1  
   
загрузка...
 
Автор Сообщение

Galfimbul

avatar Galfimbul


Скарлетт / Scarlett

Страна: Франция, США, Германия, Италия, TF1, Kirch Gruppe, Silvio Berlusconi Communications
Жанр: драма, мелодрама
Год выпуска: 1994
Продолжительность: 05:54:56 (02:59:01 + 02:55:55)

Перевод 1: Профессиональный (многоголосый закадровый) - ОРТ
Перевод 2: Профессиональный (двухголосый закадровый)
Перевод 3: Профессиональный (двухголосый закадровый) - студия Фортуна
Оригинальная аудиодорожка: английский

Режиссер: Джон Эрман / John Erman

В ролях: Джоанн Уолли-Килме, Тимоти Далтон, Стивен Коллинз, Аннабет Гиш, Шон Бин, Колм Мини, Жан Смарт, Джон Кэвэна, Джон Гилгуд, Джули Харрис, Барбара Барри, Джордж Гриззард, Мелисса Лео, Энн-Маргрет, Эстер Ролли, Элизабет Уилсон, Пол Уинфилд, Сара Кроу, Рэки Айола, Рэй МакКиннон, Брюс Боа, Хелен Бёрнс, Маргарет Кортни, Гаррик Хэгон, Мэри Холлоуэй, Боб Майнор, Аннабелл Уиник

Описание: Неужели Рэтт Батлер и Скарлетт О`Хара расстались навсегда? Что ждет очаровательную и гордую южанку, на чью долю выпали жестокие испытания и лишения, сделавшие из бойкой девчонки сильную и независимую женщину? На какие решительные и безрассудные шаги пойдет Скарлетт ради любви к надменному Рэтту? Скарлетт О`Хара никогда не отступала перед трудностями и теперь она намерена вновь побороться за свое счастье…

Качество видео: DVDRip |<a href="viewtopic.php?t=847143" class="postLink">DVD9</a>|
Формат видео: MP4

Видео: 480x360, [email protected], AR:1.33, 1080 kbps, 23.976 fps, 0.260 bpp
Аудио 1: AСC, 48 KHz, 2 ch, 160 kbps - Rus |<a href="viewtopic.php?t=105176" class="postLink">DVD5</a>|
Аудио 2: AСC, 48 KHz, 2 ch, 160 kbps - Rus |<a href="viewtopic.php?t=847143" class="postLink">DVD9</a>|
Аудио 3: AСC, 48 KHz, 2 ch, 160 kbps - Rus |<a href="viewtopic.php?t=5142687" class="postLink">Фортуна</a>|
Аудио 4: AСC, 48 KHz, 2 ch, 160 kbps - Eng |<a href="viewtopic.php?t=847143" class="postLink">DVD9</a>|
Cубтитры: русские, английские
Формат субтитров: softsub (SRT)

[b]Релиз:

</span></a></span>
Общее
Уникальный идентификатор : 213114507266891387209633063092262923178 (0xA0545C71E483E2AC8221825B9E41EBAA)
Полное имя :[email protected]
Формат : Matroska
Версия формата : Version 4 / Version 2
Размер файла : 2,14 Гбайт
Продолжительность : 2 ч. 59 м.
Общий поток : 1712 Кбит/сек
Название фильма : Скарлетт / Scarlett / 1994 [email protected]=-
Дата кодирования : UTC 2016-03-11 19:22:58
Программа кодирования : mkvmerge v8.9.0 ('Father Daughter') 64bit
Библиотека кодирования : libebml v1.3.3 + libmatroska v1.4.4

Видео
Идентификатор : 1
Формат : AVC
Формат/Информация : Advanced Video Codec
Профиль формата : [email protected]
Параметр CABAC формата : Да
Параметр ReFrames формата : 10 кадров
Идентификатор кодека : V_MPEG4/ISO/AVC
Продолжительность : 2 ч. 59 м.
Битрейт : 1080 Кбит/сек
Ширина : 480 пикселей
Высота : 360 пикселей
Соотношение сторон : 4:3
Режим частоты кадров : Постоянный
Частота кадров : 23,976 (24000/1001) кадра/сек
Цветовое пространство : YUV
Субдискретизация насыщенности : 4:2:0
Битовая глубина : 8 бит
Тип развёртки : Прогрессивная
Бит/(Пиксели*Кадры) : 0.261
Размер потока : 1,35 Гбайт (63%)
Заголовок : Rip by nnlabetik
Библиотека кодирования : x264 core 146 r2538 121396c
Настройки программы : cabac=1 / ref=10 / deblock=1:-2:-1 / analyse=0x3:0x113 / me=umh / subme=11 / psy=1 / psy_rd=1.00:0.00 / mixed_ref=1 / me_range=32 / chroma_me=1 / trellis=2 / 8x8dct=1 / cqm=0 / deadzone=21,11 / fast_pskip=0 / chroma_qp_offset=-2 / threads=6 / lookahead_threads=1 / sliced_threads=0 / nr=0 / decimate=1 / interlaced=0 / bluray_compat=0 / constrained_intra=0 / bframes=11 / b_pyramid=2 / b_adapt=2 / b_bias=0 / direct=3 / weightb=1 / open_gop=0 / weightp=2 / keyint=250 / keyint_min=23 / scenecut=40 / intra_refresh=0 / rc_lookahead=60 / rc=2pass / mbtree=1 / bitrate=1080 / ratetol=1.0 / qcomp=0.60 / qpmin=0 / qpmax=69 / qpstep=4 / cplxblur=20.0 / qblur=0.5 / vbv_maxrate=14000 / vbv_bufsize=14000 / nal_hrd=none / filler=0 / ip_ratio=1.35 / aq=1:1.00
Язык : Russian
Default : Да
Forced : Нет
Цветовой диапазон : Limited
Основные цвета : BT.709
Характеристики трансфера : BT.709
Коэффициенты матрицы : BT.709

Аудио #1
Идентификатор : 2
Формат : AAC
Формат/Информация : Advanced Audio Codec
Профиль формата : LC
Идентификатор кодека : A_AAC
Продолжительность : 2 ч. 58 м.
Битрейт : 141 Кбит/сек
Каналы : 2 канала
Расположение каналов : Front: L R
Частота : 48,0 КГц
Частота кадров : 46,875 кадров/сек (1024 spf)
Метод сжатия : С потерями
Размер потока : 180 Мбайт (8%)
Заголовок : MVO - OPT
Язык : Russian
Default : Да
Forced : Нет

Аудио #2
Идентификатор : 3
Формат : AAC
Формат/Информация : Advanced Audio Codec
Профиль формата : LC
Идентификатор кодека : A_AAC
Продолжительность : 2 ч. 59 м.
Битрейт : 160 Кбит/сек
Каналы : 2 канала
Расположение каналов : Front: L R
Частота : 48,0 КГц
Частота кадров : 46,875 кадров/сек (1024 spf)
Метод сжатия : С потерями
Размер потока : 205 Мбайт (9%)
Заголовок : DVO
Язык : Russian
Default : Нет
Forced : Нет

Аудио #3
Идентификатор : 4
Формат : AAC
Формат/Информация : Advanced Audio Codec
Профиль формата : LC
Идентификатор кодека : A_AAC
Продолжительность : 2 ч. 59 м.
Битрейт : 160 Кбит/сек
Каналы : 2 канала
Расположение каналов : Front: L R
Частота : 48,0 КГц
Частота кадров : 46,875 кадров/сек (1024 spf)
Метод сжатия : С потерями
Размер потока : 205 Мбайт (9%)
Заголовок : DVO - Fortuna
Язык : Russian
Default : Нет
Forced : Нет

Аудио #4
Идентификатор : 5
Формат : AAC
Формат/Информация : Advanced Audio Codec
Профиль формата : LC
Идентификатор кодека : A_AAC
Продолжительность : 2 ч. 59 м.
Битрейт : 165 Кбит/сек
Каналы : 2 канала
Расположение каналов : Front: L R
Частота : 48,0 КГц
Частота кадров : 46,875 кадров/сек (1024 spf)
Метод сжатия : С потерями
Размер потока : 211 Мбайт (10%)
Язык : English
Default : Нет
Forced : Нет

Текст #1
Идентификатор : 6
Формат : UTF-8
Идентификатор кодека : S_TEXT/UTF8
Идентификатор кодека/Информация : UTF-8 Plain Text
Продолжительность : 2 ч. 58 м.
Битрейт : 108 бит/сек
Count of elements : 2548
Размер потока : 141 Кбайт (0%)
Язык : Russian
Default : Нет
Forced : Нет

Текст #2
Идентификатор : 7
Формат : UTF-8
Идентификатор кодека : S_TEXT/UTF8
Идентификатор кодека/Информация : UTF-8 Plain Text
Продолжительность : 2 ч. 57 м.
Битрейт : 70 бит/сек
Count of elements : 3172
Размер потока : 91,5 Кбайт (0%)
Язык : English
Default : Нет
Forced : Нет

Меню
00:00:00.000 : :Chapter 01
00:09:20.100 : :Chapter 02
00:15:46.334 : :Chapter 03
00:24:23.035 : :Chapter 04
00:29:56.569 : :Chapter 05
00:35:29.236 : :Chapter 06
00:41:40.204 : :Chapter 07
00:56:52.371 : :Chapter 08
01:10:12.771 : :Chapter 09
01:18:47.271 : :Chapter 10
01:26:25.872 : :Chapter 11
01:32:37.873 : :Chapter 12
01:38:09.574 : :Chapter 13
01:44:56.908 : :Chapter 14
01:53:04.008 : :Chapter 15
02:00:03.876 : :Chapter 16
02:06:01.577 : :Chapter 17
02:14:49.111 : :Chapter 18
02:22:51.311 : :Chapter 19
02:36:05.112 : :Chapter 20
02:38:47.546 : :Chapter 21
02:53:14.213 : :Chapter 22


Трекер:  [ 12-Мар-2016 08:00 ]

  

Скачать .torrent

Размер .torrent файла 11 KB


Размер: 4.27 GB
Хэш (hash) релиза: 8382f87949851f55cfd1b3443c217d12f3a202d7

Торренты, похожие на [VIDEO] Скарлетт Scarlett скачать торрент

Форум Название Автор Размер S L Добавлен
Видео (Фильмы/Клипы) ·· [VIDEO] Скарлетт / Scarlett (Джон Эрман / John Erman) [1994, драма, мелодрама, DVDRip] [MP4, 640x] MVO ОРТ, DVO, Original Eng, Sub (Rus, Eng) Galfimbul 41522165273.87 GB 0 0 1460718674

14:11

15-Апр-16

Еще никто не оставлял запись к записи скачать торрент [VIDEO] Скарлетт Scarlett . Будь первым!

!Обратная связь