Harry Potter et la Chambre des Secrets (Enhanced Edition) | Русский | Odwet / 1:54 (2016)

Скачать через торрент [SERIAL] Люцифер Lucifer бесплатно русская версия torrent активатор

Статистика раздачи
Размер:  1.01 GB   |    Зарегистрирован:  2 года 4 месяца   |    .torrent скачан:  30 раз   |   
Раздают:  1   Качают:  4  
   
загрузка...
 
Автор Сообщение

Galfimbul

avatar Galfimbul


Люцифер / Lucifer

Год выпуска: 2016

Страна: США
Жанр: Фэтези

Серий: 1-6 из 13
Продолжительность: X ~ 00:45:00
Перевод: Профессиональный (многоголосый закадровый) BaibaKo
Cубтитры: нет

Режиссер: Нэйтан Хоуп, Лен Уайзман, Майрзи Алмас
В ролях: Рэйчел Харрис, Лорен Джерман, Кайла Юэлл, Кевин Алехандро, Лесли-Энн Брандт, Д.Б. Вудсайд, Том Эллис, Мэтт Корбой, Скарлет Эстевез и др.
Описание: Заскучавший и несчастный повелитель преисподней, Люцифер Морнингстар оставил свой престол и отправился в современный Лос-Анджелес, где основал ночной клуб «Lux». Очаровательный, харизматичный и дьявольски привлекательный Люцифер наслаждается своим отдыхом — вином, женщинами и музыкой — пока красивая поп-звезда не оказывается убитой на пороге его клуба…

Качество: WEB-DLRip
Формат: MP4
Видео: AVC, 480x272, 420 kbps, 23,976 fps
Аудио: AAC, 2 ch, 48,0 khz, 128 kbps

Рип от: Egorijj.Alien
Релиз от:
GeneralНазвание : C:\Users\G5030\Desktop\Люцифер mp4\Lucifer.s01e06.mp4Формат : MPEG-4Формат profile : Base MediaКодек ID : isomРазмер файла : 172 MiBДлительность : 43mn 37sОбщий Битрейт mode : VariableОбщий Битрейт : 552 KbpsEncoded date : UTC 2016-03-06 10:52:43Tagged date : UTC 2016-03-06 10:52:43

VideoID : 1Формат : AVCФормат/Info : Advanced Video КодекФормат profile : [email protected]Формат настройки, CABAC : YesФормат настройки, ReFrames : 7 framesКодек ID : avc1Кодек ID/Info : Advanced Video CodingДлительность : 43mn 36sБитрейт : 420 KbpsMaximum Битрейт : 2 141 KbpsWidth : 480 пикселейВысота : 272 пикселейСоотношение кадра : 16:9Частота кадров mode : ConstantЧастота кадров : 23.976 fpsЦветопередача : YUVChroma subsampling : 4:2:0Разрядность : 8 bitsТип сканирования : ProgressiveBits/(Pixel*Frame) : 0.134Размер потока : 131 MiB (76%)Writing library : x264 core 130 r2273 b3065e6Encoding настройки : cabac=1 / ref=7 / deblock=1:-1:-1 / analyse=0x3:0x133 / me=umh / subme=8 / psy=1 / psy_rd=1.00:0.10 / mixed_ref=1 / me_range=24 / chroma_me=1 / trellis=2 / 8x8dct=1 / cqm=0 / deadzone=21,11 / fast_pskip=0 / chroma_qp_offset=-3 / threads=3 / lookahead_threads=1 / sliced_threads=0 / nr=0 / decimate=1 / interlaced=0 / bluray_compat=0 / constrained_intra=0 / bframes=7 / b_pyramid=2 / b_adapt=2 / b_bias=0 / direct=3 / weightb=1 / open_gop=0 / weightp=2 / keyint=250 / keyint_min=23 / scenecut=40 / intra_refresh=0 / rc_lookahead=50 / rc=2pass / mbtree=1 / bitrate=420 / ratetol=1.0 / qcomp=0.60 / qpmin=0 / qpmax=69 / qpstep=4 / cplxblur=20.0 / qblur=0.5 / ip_ratio=1.40 / aq=1:1.00Encoded date : UTC 2016-03-06 10:52:43Tagged date : UTC 2016-03-06 10:52:57

AudioID : 2Формат : AACФормат/Info : Advanced Audio КодекФормат profile : LCКодек ID : 40Длительность : 43mn 37sБитрейт mode : VariableБитрейт : 128 KbpsMaximum Битрейт : 136 KbpsChannel(s) : 2 каналаChannel positions : Front: L RЧастота : 48.0 KHzРежим сжатия : LossyРазмер потока : 39.9 MiB (23%)Encoded date : UTC 2016-03-06 10:52:54Tagged date : UTC 2016-03-06 10:52:57
Внимание! Раздача ведётся путём добавления новых серий; при каждом добавлении создаётся новый торрент. Чтобы начать докачку новой серии, пользователям необходимо сделать следующее:
(1) остановить скачивание,
(2) удалить старый торрент у себя из клиента (старые серии удалять не надо),
(3) скачать новый торрент и запустить его у себя в клиенте вместо старого, при этом указать клиенту путь в старую папку куда и должно происходить скачивание новых серий.
Ваш клиент при этом должен произвести хеширование (проверку) старой папки (если не производит сам - помогите ему сделать это), и будет докачивать только те серии которых у вас ещё нет. Старые серии при этом не удаляются, а продолжают раздаваться!
Eсли вы уже удалили старые серии, то предотвратить повторную закачку старых серий можно, отжав галочку в соответствующих местах при запуске нового торрента. По возможности, желательно не удалять старые серии как можно дольше чтобы релизёр не столько продолжал раздавать старые серии, а смог сконцентрироваться на новых.


Трекер:  [ 07-Мар-2016 09:00 ]

  

Скачать .torrent

Размер .torrent файла 11 KB


Размер: 1.01 GB
Хэш (hash) релиза: bf4e818a83778bd0e63b295472861ba0054685c0

Еще никто не оставлял запись к записи скачать торрент [SERIAL] Люцифер Lucifer . Будь первым!

!Обратная связь