Louis Jean Heydt | house of cards s04 | Nurse Witch Komugi-Chan R

Скачать через торрент [MULT] Плоский Мир: Вещие сестрички и Роковая музыка Terry Pratchetts Discworld - Wyrd Sisters & Soul Music бесплатно русская версия torrent активатор

Статистика раздачи
Размер:  990 MB   |    Зарегистрирован:  2 года 4 месяца   |    .torrent скачан:  24 раза   |   
Раздают:  1  
   
загрузка...
 
Автор Сообщение

Galfimbul

avatar Galfimbul


Плоский Мир: Вещие сестрички / Terry Pratchett's Discworld - Wyrd Sisters
Год выпуска: 1997
Страна: Великобритания
Жанр: фэнтези, комедия
Продолжительность: 150 мин
Перевод: Профессиональный Дубляж Телеканала 2х2
Русские субтитры: нет
Режиссер: Джин Флинн / Jean Flynn
Роли озвучивали: Christopher Lee (Смерть), Jane Horrocks (Маграт), June Whitfield (Нянюшка Ягг), Annette Crosbie (Матушка Ветровоск), Eleanor Bron, Les Dennis, Andy Hockley, Jimmy Hibbert, Rob Rackstraw, Melissa Sinden, Taff Girdlestone
Описание: Мультипликационная версия повести "Вещие Сестрички" из цикла "Плоский Мир" Терри Пратчетта.

Короля Ланкра убил его коварный родич, но с помощью трех ведьм — матушки Ветровоск, нянюшки Ягг и молодой Маграт Чесногк — его младенец-сын оказывается спасен и вывезен из страны труппой бродячих актеров. Новый король — безумный и жестокий тиран, ненавидящий свою землю. Ведьмы вступают с ним в борьбу…

Качество: SATRip
Формат: 3GP
Видео кодек: XviD
Аудио кодек: AAC
Видео: XviD, 320x240 (4:3), 320 Kbps, 25 fps
Аудио: AAC, 2 ch, 96 Kbps, 48 KHz
Полное имя : D:\Раздачи\Terry Pratchett's Discworld\Wyrd Sisters\01 Wyrd Sisters.3gpФормат : MPEG-4Профиль формата : 3GPP Media Release 4Идентификатор кодека : 3gp4 (isom/iso2/3gp4)Размер файла : 73,1 МбайтПродолжительность : 24 м.Режим общего битрейта : ПостоянныйОбщий поток : 420 Кбит/сек

ВидеоИдентификатор : 1Формат : MPEG-4 VisualПрофиль формата : [email protected]Параметр BVOP формата : НетПараметр QPel формата : НетПараметр GMC формата : Без точки переходаПараметр матрицы формата : Default (H.263)Идентификатор кодека : 20Продолжительность : 24 м.Вид битрейта : ПостоянныйБитрейт : 320 Кбит/секШирина : 320 пикселейВысота : 240 пикселейСоотношение сторон : 4:3Режим частоты кадров : ПостоянныйЧастота кадров : 25,000 кадров/секЦветовое пространство : YUVСубдискретизация насыщенности : 4:2:0Битовая глубина : 8 битТип развёртки : ПрогрессивнаяМетод сжатия : С потерямиБит/(Пиксели*Кадры) : 0.167Размер потока : 55,6 Мбайт (76%)Библиотека кодирования : XviD 1.2.1 (UTC 2008-12-04)

АудиоИдентификатор : 2Формат : AACФормат/Информация : Advanced Audio CodecПрофиль формата : LCИдентификатор кодека : 40Продолжительность : 24 м.Вид битрейта : ПостоянныйБитрейт : 96,0 Кбит/секКаналы : 2 каналаРасположение каналов : Front: L RЧастота : 48,0 КГцЧастота кадров : 46,875 кадров/сек (1024 spf)Метод сжатия : С потерямиРазмер потока : 16,7 Мбайт (23%)
Плоский Мир: Роковая музыка / Terry Pratchett's Discworld - Soul Music
Год выпуска: 1997
Страна: Великобритания
Жанр: фэнтези, комедия
Продолжительность: 175 мин
Перевод: Профессиональный Дубляж Телеканала 2х2
Русские субтитры: нет
Режиссер: Джин Флинн / Jean Flynn
Роли озвучивали: Christopher Lee (Смерть), Jane Horrocks (Маграт), June Whitfield (Нянюшка Ягг), Annette Crosbie (Матушка Ветровоск), Eleanor Bron, Les Dennis, Andy Hockley, Jimmy Hibbert, Rob Rackstraw, Melissa Sinden, Taff Girdlestone
Описание: Мультипликационная версия повести "Роковая музыка" из цикла "Плоский Мир" Терри Пратчетта.

Парень, живущий в сельской местности, играет на арфе и мечтает стать великим музыкантом. Однажды, поссорившись с отцом, он сбегает в город, чтобы играть музыку. Тем временем Смерть, уставший от своей работы, уходит в Иностранный легион, где пытается все забыть. А на его место вынуждена встать его внучка, которая ничего не понимает в работе дедушки-Смерти.

Качество: SATRip
Формат: 3GP
Видео кодек: XviD
Аудио кодек: AAC
Видео: XviD, 320x240 (4:3), 320 Kbps, 25 fps
Аудио: AAC, 2 ch, 128 Kbps, 48 KHz
Полное имя : D:\Раздачи\Terry Pratchett's Discworld\Soul Music\01 Soul Music.3gpФормат : MPEG-4Профиль формата : 3GPP Media Release 4Идентификатор кодека : 3gp4 (isom/iso2/3gp4)Размер файла : 78,4 МбайтПродолжительность : 24 м.Режим общего битрейта : ПостоянныйОбщий поток : 452 Кбит/сек

ВидеоИдентификатор : 1Формат : MPEG-4 VisualПрофиль формата : [email protected]Параметр BVOP формата : НетПараметр QPel формата : НетПараметр GMC формата : Без точки переходаПараметр матрицы формата : Default (H.263)Идентификатор кодека : 20Продолжительность : 24 м.Вид битрейта : ПостоянныйБитрейт : 320 Кбит/секШирина : 320 пикселейВысота : 240 пикселейСоотношение сторон : 4:3Режим частоты кадров : ПостоянныйЧастота кадров : 25,000 кадров/секЦветовое пространство : YUVСубдискретизация насыщенности : 4:2:0Битовая глубина : 8 битТип развёртки : ПрогрессивнаяМетод сжатия : С потерямиБит/(Пиксели*Кадры) : 0.167Размер потока : 55,4 Мбайт (71%)Библиотека кодирования : XviD 1.2.1 (UTC 2008-12-04)

АудиоИдентификатор : 2Формат : AACФормат/Информация : Advanced Audio CodecПрофиль формата : LCИдентификатор кодека : 40Продолжительность : 24 м.Вид битрейта : ПостоянныйБитрейт : 128 Кбит/секКаналы : 2 каналаРасположение каналов : Front: L RЧастота : 48,0 КГцЧастота кадров : 46,875 кадров/сек (1024 spf)Метод сжатия : С потерямиРазмер потока : 22,2 Мбайт (28%)


Трекер:  [ 05-Мар-2016 15:30 ]

  

Скачать .torrent

Размер .torrent файла 20 KB


Размер: 990 MB
Хэш (hash) релиза: 0564db64aabbb4727dbcf6cc9f8d1ca9eaa0cfdf

Еще никто не оставлял запись к записи скачать торрент [MULT] Плоский Мир: Вещие сестрички и Роковая музыка Terry Pratchetts Discworld - Wyrd Sisters & Soul Music . Будь первым!

!Обратная связь