Swordsman | The Sunset 2096 [PC] | The L Word

Скачать через торрент [DOC] День космических историй бесплатно русская версия torrent активатор

Статистика раздачи
Размер:  24.11 GB   |    Зарегистрирован:  2 года 4 месяца   |    .torrent скачан:  35 раз   |   
Раздают:  1  
   
загрузка...
 
Автор Сообщение

Galfimbul

avatar Galfimbul


День космических историй

Год выпуска: 2011 - 2016

Страна: Россия
Жанр: Документальный, научно-познавательный
Выпусков: 112 из 112
Продолжительность: 92:34:44
Перевод: Не требуется
Cубтитры: нет
Оригинальная аудиодорожка: нет

Руководитель и ведущий: Игорь Прокопенко

Описание: На канале РЕН ТВ «День космических историй» с Игорем Прокопенко. В эфире самые интересные документальные фильмы. В основе всех сюжетов – эксклюзивные факты, гипотезы и рассказы очевидцев, анализ и оценка учёных и экспертов

Качество: Выпуски от 05.01.2016: WEBDLRip. Остальные выпуски: SATRip
Формат: MP4
Видео: AVC, 480x272, 500 kbps, 25 fps
Аудио:
Выпуски от 04.11.2012: AAC, 1 ch, 48,0 khz, 128 kbps
Выпуски от 05.01.2016: AAC, 2 ch, 44,1 khz, 128 kbps
Остальные выпуски: AAC, 2 ch, 48,0 khz, 128 kbps

Рип от: Egorijj.Alien
Релиз от:
01-й выпуск. "Вулканы из космоса"
02-й выпуск. "Смертельный космос"
03-й выпуск. "По закону звёзд"
04-й выпуск. "Гагарин. Последний полет"
05-й выпуск. "Карлики во Вселенной"
06-й выпуск. "По млечному пути"
07-й выпуск. "Солнечная бездна"
08-й выпуск. "Космические странники"
09-й выпуск. "Очарованные Вселенной"
10-й выпуск. "НЛО. Британское досье"
11-й выпуск. "Тайна подводных городов"
01-й выпуск. "Русский аватар"
02-й выпуск. "НЛО. Заговор спецслужб"
03-й выпуск. "Вольф Мессинг. Неизвестные предсказания"
04-й выпуск. "Смерть как чудо"
05-й выпуск. "Пирамиды. Космос на проводе"
06-й выпуск. "НЛО. Скрытая истина"
07-й выпуск. "Код Евы"
08-й выпуск. "Смерть Вселенной"
09-й выпуск. "Мифы из космоса"
10-й выпуск. "Формула жизни"
01-й выпуск. "Теорема вечной жизни"
02-й выпуск. "Невольники Вселенной"
03-й выпуск. "Игры разума"
04-й выпуск. "Рожденные на Луне"
05-й выпуск. "10 процентов чуда"
06-й выпуск. "За секунду до вечности"
07-й выпуск. "Земные дыры"
08-й выпуск. "Разум глубин"
09-й выпуск. "Демоны Земли"
10-й выпуск. "За год до Апокалипсиса"
01-й выпуск. "Заразный космос"
02-й выпуск. "Зоопарк во Вселенной"
03-й выпуск. "Смерть по знаку Зодиака"
04-й выпуск. "Тайна людей в черном"
05-й выпуск. "Дом на краю Галактики"
06-й выпуск. "Ложь разума"
07-й выпуск. "Рабы пришельцев"
08-й выпуск. "Звездные двери"
09-й выпуск. "Эксперимент "Земля""
10-й выпуск. "День Апокалипсиса"
01-й выпуск. "Последние из атлантов"
02-й выпуск. "Зов крови"
03-й выпуск. "Подводные жители"
04-й выпуск. "Морские пришельцы"
- Повтор ранее показанного выпуска -
06-й выпуск. "Гости из космоса"
07-й выпуск. "Космические спасатели"
08-й выпуск. "Галактические разведчики"
- Повтор ранее показанного выпуска -
10-й выпуск. "Бойцы Вселенной"
11-й выпуск. "Назад в будущее"
12-й выпуск. "Заговор богов"
01-й выпуск. "Великая тайна апокалипсиса"
02-й выпуск. "По звездному пути"
03-й выпуск. "Лунная гонка"
04-й выпуск. "НЛО. Секретные файлы"
05-й выпуск. "Сойти с орбиты"
06-й выпуск. "Битва за Марс"
07-й выпуск. "Морские дьяволы"
08-й выпуск. "Тайна подводных цивилизаций"
- Повтор ранее показанного выпуска -
10-й выпуск. "В поисках новой Земли"
11-й выпуск. "Любовь древних богов"
01-й выпуск. "Пикник на обочине"
- Повтор ранее показанного выпуска -
03-й выпуск. "Охотники за сокровищами"
04-й выпуск. "Архитекторы древних планет"
05-й выпуск. "Хранители звездных врат"
06-й выпуск. "Тень Апокалипсиса"
- Повтор ранее показанного выпуска -
08-й выпуск. "Подводная Вселенная"
- Повтор ранее показанного выпуска -
10-й выпуск. "Время гигантов"
11-й выпуск. "НЛО. Дело особой важности"
12-й выпуск. "Любовь из Поднебесной"
13-й выпуск. "Девы славянских богов"
01-й выпуск. "Лаборатория древних богов"
02-й выпуск. "Заложники Вселенной"
- Повтор ранее показанного выпуска -
04-й выпуск. "Тайны сумрачной бездны"
- Повтор ранее показанного выпуска -
06-й выпуск. "Навечно рожденные"
07-й выпуск. "Любовницы государственной важности"
08-й выпуск. "Седьмая печать дьявола"
- Повтор ранее показанного выпуска -
01-й выпуск. "Во власти разума"
02-й выпуск. "Пришельцы. Мифы и доказательства"
03-й выпуск. "Павшие цивилизации"
04-й выпуск. "Голос Галактики"
05-й выпуск. "Водовороты Вселенной"
06-й выпуск. "Еда. Рассекреченные материалы"
07-й выпуск. "Загадки летающих тарелок"
08-й выпуск. "Тайны пропавших самолетов"
09-й выпуск. "Армагеддон"
10-й выпуск. "Сила древнего предсказания"
01-й выпуск. "Нас не прогонят"
02-й выпуск. "Они помогли нам родиться"
03-й выпуск. "Одиннадцать причин конца Света"
04-й выпуск. "Великий обман времен"
05-й выпуск. "Свадьба монстров"
06-й выпуск. "Байки из склепа"
07-й выпуск. "Я отправляюсь на Марс"
08-й выпуск. "Хроники пропавшего самолёта"
09-й выпуск. "Золото инков"
10-й выпуск. "Американцы на Луне"
11-й выпуск. "Где живёт подводный разум"
12-й выпуск. "Что принесёт нам обезьян"
13-й выпуск. "Меня похищали инопланетяне"
14-й выпуск. "Когда Сибирь станет американской"
01-й выпуск. "Кто-то нас придумал"
02-й выпуск. "Когда погаснет Солнце?"
03-й выпуск. "Великий обман"
04-й выпуск. "Что за новая планета"
- Повтор ранее показанного выпуска -
06-й выпуск. "Кто управляет водой"
07-й выпуск. "Вредный ветер перемен"
08-й выпуск. "Охота на циклопа"
- Повтор ранее показанного выпуска -
10-й выпуск. "Где волшебную косят трын-траву"
11-й выпуск. "Кто же мама?"
12-й выпуск. "Американцы на Луне"
13-й выпуск. "Как спецслужбы инопланетян ловили"
GeneralНазвание : D:\Видео\mp4 480\День космических историй mp4\09) 15.06.2014.SATRip\04.Голос Галактики.mp4Формат : MPEG-4Формат profile : Base MediaКодек ID : isomРазмер файла : 211 MiBДлительность : 46mn 36sОбщий Битрейт mode : VariableОбщий Битрейт : 632 KbpsEncoded date : UTC 2016-02-21 14:29:56Tagged date : UTC 2016-02-21 14:29:56

VideoID : 1Формат : AVCФормат/Info : Advanced Video КодекФормат profile : [email protected]Формат настройки, CABAC : YesФормат настройки, ReFrames : 8 framesКодек ID : avc1Кодек ID/Info : Advanced Video CodingДлительность : 46mn 36sБитрейт : 500 KbpsMaximum Битрейт : 5 746 KbpsWidth : 480 пикселейВысота : 272 пикселейСоотношение кадра : 16:9Частота кадров mode : ConstantЧастота кадров : 25.000 fpsЦветопередача : YUVChroma subsampling : 4:2:0Разрядность : 8 bitsТип сканирования : ProgressiveBits/(Pixel*Frame) : 0.153Размер потока : 167 MiB (79%)Writing library : x264 core 130 r2273 b3065e6Encoding настройки : cabac=1 / ref=8 / deblock=1:-1:-1 / analyse=0x3:0x133 / me=umh / subme=9 / psy=1 / psy_rd=1.00:0.10 / mixed_ref=1 / me_range=25 / chroma_me=1 / trellis=2 / 8x8dct=1 / cqm=0 / deadzone=21,11 / fast_pskip=0 / chroma_qp_offset=-3 / threads=3 / lookahead_threads=1 / sliced_threads=0 / nr=0 / decimate=1 / interlaced=0 / bluray_compat=0 / constrained_intra=0 / bframes=8 / b_pyramid=2 / b_adapt=2 / b_bias=0 / direct=3 / weightb=1 / open_gop=0 / weightp=2 / keyint=250 / keyint_min=25 / scenecut=40 / intra_refresh=0 / rc_lookahead=50 / rc=2pass / mbtree=1 / bitrate=500 / ratetol=1.0 / qcomp=0.60 / qpmin=0 / qpmax=69 / qpstep=4 / cplxblur=20.0 / qblur=0.5 / ip_ratio=1.40 / aq=1:1.00Encoded date : UTC 2016-02-21 14:29:56Tagged date : UTC 2016-02-21 14:30:08

AudioID : 2Формат : AACФормат/Info : Advanced Audio КодекФормат profile : LCКодек ID : 40Длительность : 46mn 36sБитрейт mode : VariableБитрейт : 128 KbpsMaximum Битрейт : 135 KbpsChannel(s) : 2 каналаChannel positions : Front: L RЧастота : 48.0 KHzРежим сжатия : LossyРазмер потока : 42.7 MiB (20%)Encoded date : UTC 2016-02-21 14:30:05Tagged date : UTC 2016-02-21 14:30:08
GeneralНазвание : D:\Видео\mp4 480\День космических историй mp4\10) 05.01.2016.WEB-DLRip\01.Нас не прогонят.mp4Формат : MPEG-4Формат profile : Base MediaКодек ID : isomРазмер файла : 217 MiBДлительность : 47mn 56sОбщий Битрейт mode : VariableОбщий Битрейт : 632 KbpsEncoded date : UTC 2016-02-11 21:38:09Tagged date : UTC 2016-02-11 21:38:09

VideoID : 1Формат : AVCФормат/Info : Advanced Video КодекФормат profile : [email protected]Формат настройки, CABAC : YesФормат настройки, ReFrames : 8 framesКодек ID : avc1Кодек ID/Info : Advanced Video CodingДлительность : 47mn 56sБитрейт : 500 KbpsMaximum Битрейт : 2 587 KbpsWidth : 480 пикселейВысота : 272 пикселейСоотношение кадра : 16:9Частота кадров mode : ConstantЧастота кадров : 25.000 fpsЦветопередача : YUVChroma subsampling : 4:2:0Разрядность : 8 bitsТип сканирования : ProgressiveBits/(Pixel*Frame) : 0.153Размер потока : 171 MiB (79%)Writing library : x264 core 130 r2273 b3065e6Encoding настройки : cabac=1 / ref=8 / deblock=1:-1:-1 / analyse=0x3:0x133 / me=umh / subme=9 / psy=1 / psy_rd=1.00:0.10 / mixed_ref=1 / me_range=25 / chroma_me=1 / trellis=2 / 8x8dct=1 / cqm=0 / deadzone=21,11 / fast_pskip=0 / chroma_qp_offset=-3 / threads=3 / lookahead_threads=1 / sliced_threads=0 / nr=0 / decimate=1 / interlaced=0 / bluray_compat=0 / constrained_intra=0 / bframes=8 / b_pyramid=2 / b_adapt=2 / b_bias=0 / direct=3 / weightb=1 / open_gop=0 / weightp=2 / keyint=250 / keyint_min=25 / scenecut=40 / intra_refresh=0 / rc_lookahead=50 / rc=2pass / mbtree=1 / bitrate=500 / ratetol=1.0 / qcomp=0.60 / qpmin=0 / qpmax=69 / qpstep=4 / cplxblur=20.0 / qblur=0.5 / ip_ratio=1.40 / aq=1:1.00Encoded date : UTC 2016-02-11 21:38:09Tagged date : UTC 2016-02-11 21:38:18

AudioID : 2Формат : AACФормат/Info : Advanced Audio КодекФормат profile : LCКодек ID : 40Длительность : 47mn 56sБитрейт mode : VariableБитрейт : 128 KbpsMaximum Битрейт : 137 KbpsChannel(s) : 2 каналаChannel positions : Front: L RЧастота : 44.1 KHzРежим сжатия : LossyРазмер потока : 43.9 MiB (20%)Encoded date : UTC 2016-02-11 21:38:17Tagged date : UTC 2016-02-11 21:38:18


Трекер:  [ 27-Фев-2016 08:00 ]

  

Скачать .torrent

Размер .torrent файла 132 KB


Размер: 24.11 GB
Хэш (hash) релиза: cade2504faff6c71bc30ddc50b3057705a4e9755

Еще никто не оставлял запись к записи скачать торрент [DOC] День космических историй . Будь первым!

!Обратная связь