Canal Boat - July 2018 (.PDF) | Snapchat APK | Unity Pro 2018.1.4f1 +...

Скачать через торрент Мир Кролика Питера Фильм бесплатно в хорошем качестве torrent

Скачивайте на UnionPeer.org фильмы через торрент без регистрации. Новинки кино в хорошем качестве через торрент. На UnionPeer.org можно скачать через торрент фильмы 2014 и 2015 годов. Самые новые фильмы.

Скачать торрент Мир Кролика Питера бесплатно через .torrent фильм мультфильм сериал

Статистика раздачи
Размер:  8.06 GB   |    Зарегистрирован:  2 года 3 месяца   |    .torrent скачан:  53 раза   |   
Раздают:  1  
   
загрузка...
 
Автор Сообщение

Galfimbul

avatar Galfimbul


Мир Кролика Питера (Питер Пуш и его друзья) / The Beatrix Potter - The World of Peter Rabbit and Friends

Страна: Великобритания
Жанр: Мультсериал, семейный
Продолжительность: 00:25:40
Год выпуска: 1992-1995
Перевод: Профессиональный (дублированный)
Русские субтитры: нет

Режиссёр: Диана Джексон / Dianne Jackson
Описание: Экранизация сказок британской детской писательницы Беатрис Поттер. Транслировался по тв Останкино в 1995 году.

Список серий:
1 Питер Пуш и Олли кролик. 3 Котенок Том и Утка Клара Кряквуд. 4 Стефани Фанни и Джереми Фишер. 7 Поросенок Хью 8 Крис Усач или сказка про рулет. 9 Глостерский портной.

Доп. информация: Спасибо за видео Misantrop. Благодарность Narцissa за использование ее озвучки в фрагменте серии 3 Котенок Том и Утка Клара Кряквуд.

Качество: DVDRip
Формат: AVI
Видео: NTSC 4:3 (720x480) , 29.970 fps, ~ 8000 kbps
Аудио: AC3, 2 ch, CBR 192 kbps, 48 kHz
Субтитры: отсутствуют
ОбщееПолное имя : C:\Users\2\Desktop\Питер Пуш и его друзья\1 Питер Пуш и Олли кролик.mpgФормат : MPEG-PSРазмер файла : 1,33 ГбайтПродолжительность : 25 м.Режим общего битрейта : ПеременныйОбщий поток : 7383 Кбит/сек

ВидеоИдентификатор : 224 (0xE0)Формат : MPEG VideoВерсия формата : Version 2Профиль формата : [email protected]Параметр BVOP формата : ДаПараметр матрицы формата : ВыборочнаяПараметр GOP формата : VariableПродолжительность : 25 м.Вид битрейта : ПеременныйБитрейт : 7044 Кбит/секМаксимальный битрейт : 9586 Кбит/секШирина : 720 пикселейВысота : 480 пикселейСоотношение сторон : 4:3Частота кадров : 29,970 кадров/секСтандарт вещания : NTSCЦветовое пространство : YUVСубдискретизация насыщенности : 4:2:0Битовая глубина : 8 битТип развёртки : ЧересстрочнаяПорядок развёртки : Верхнее поле первоеМетод сжатия : С потерямиБит/(Пиксели*Кадры) : 0.680Временной код первого кадра : 00:00:00;00Оригинал временного кода : Group of pictures headerРазмер потока : 1,26 Гбайт (95%)

АудиоИдентификатор : 189 (0xBD)-128 (0x80)Формат : AC-3Формат/Информация : Audio Coding 3Расширение режима : CM (complete main)Параметр Endianness формата : BigРежим смешивания : DVD-VideoПродолжительность : 25 м.Вид битрейта : ПостоянныйБитрейт : 192 Кбит/секКаналы : 2 каналаРасположение каналов : Front: L RЧастота : 48,0 КГцБитовая глубина : 16 битМетод сжатия : С потерямиРазмер потока : 35,3 Мбайт (3%)


Трекер:  [ 26-Фев-2016 21:00 ]

  

Скачать .torrent

Размер .torrent файла 21 KB


Размер: 8.06 GB
Хэш (hash) релиза: 27a91e8a7a6b2097b4e7f2cbe91eedbb04fd927d
Подписка на обновления:

Еще никто не оставлял запись к записи скачать торрент Мир Кролика Питера . Будь первым!

!Обратная связь