Introduction to the Design and Analysis of Algorithms, 2nd Edition | Hong Kong | Жизнь / Vida [01х01-05 из 10] (2018) WEB-DL 720p | Jaskier 41 minutes

Скачать через торрент [VIDEO] Человек из ниоткуда Ajeossi бесплатно русская версия torrent активатор

Статистика раздачи
Размер:  1.41 GB   |    Зарегистрирован:  2 года 4 месяца   |    .torrent скачан:  32 раза   |   
Раздают:  2  
   
загрузка...
 
Автор Сообщение

Galfimbul

avatar Galfimbul


Человек из ниоткуда / Ajeossi / The Man from Nowhere
«Nothing to lose, nothing to compromise»

Год выпуска: 2010
Страна: Корея Южная
Жанр: криминал, драма, триллер, боевик
Продолжительность: 01:59:18
Перевод №1: Авторский (Одноголосый, закадровый) Ю.Сербин
Перевод №2: Одноголосый (Закадровый) @PD
Cубтитры: нет
Режиссеры: Ли Чжон-Бом / Lee Jeong-beom
В ролях: Вон Бин, Сае-Рон Ким, Танаёнг Вонгтракул, Ким Те-хун и другие .
Описание: Чха Тхэ Сик — скромный владелец ломбарда. Девочка Чон Соме его соседка и дочь матери-одиночки, которая работает в баре танцовщицей и не столько увлекается воспитанием ребенка, сколько ищет острых ощущений на свою и без того повидавшую виды, неудавшуюся жизнь. И вот однажды мать Соме вместе со своим парнем решает обокрасть наркокурьера, который регулярно появляется в заведении, где она выступает…

Янг Ик-Юн первоначально должен был играть роль детектива, но из-за занятости в других проектах выбыл из фильма. Его роль отошла актеру Ким Тэ Хуну.
Съемки начались в декабре 2009.
Впечатляющую сцену, когда персонаж Вон Бина выпрыгивает из окна, преследуемый полицейскими, снимали несколько раз. Оператор бежал за актёром и прыгал за ним в окно.
Режиссер Ли Чжон Бом начал писать сценарий в январе 2009 года. Первый вариант был закончен за 3 месяца. Первоначально главный герой был прописан как 60-летний северокорейский агент (отголоски можно заметить в фильме), но затем переписан в 40-летнего мужчину. Случайно актёр Вон Бин прочитал сценарий и захотел сыграть главного героя. Главный герой и история его жизни были переписаны, чтобы объяснить молодость актёра.
Все трюки в фильме, несмотря на настояния режиссера на каскадере, Вон Бин исполнил сам.
У Вон Бина чёрный пояс по тхэквондо, но до этого фильма с холодным и огнестрельным оружием актёр дела не имел. Он тренировался 3 месяца перед съёмками, чтобы естественно выглядеть и двигаться с оружием в руках.
Режиссер Ли Чжон Бом взял идею для фильма в статье новостей о молодой девочке, которая жила в трудных условиях.
В сцене фильма, где главный герой использует полотенце, чтобы разоружить нож резким движением, в действительности движение запустило нож мимо голов съемочной группы.
Первоначально главную мужскую роль должен был играть Ким Мён Мин..

Релиз группы
Качество: HDRip / [url=...3799866]BDRip 720p[/url]
Формат: MP4
Видео кодек: H.264
Аудио кодек: AAC
Видео: 960x410 AR:2.35 1433 kbps 23.976 fps
Аудио №1: [Русский] 2ch 48 kHz 128 kbps - [VO] Ю.Сербин
Аудио №2: [Русский] 2ch 48 kHz 128 kbps - [VO] @PD
avs [info]: 960x410p 1:1 @ 2997/125 fps (cfr)
x264 [info]: using SAR=1/1
x264 [info]: using cpu capabilities: MMX2 SSE2Fast SSSE3 SSE4.2 LZCNT
x264 [info]: profile High, level 4.1

x264 [info]: frame I:1662 Avg QP:17.09 size: 56336
x264 [info]: frame P:37994 Avg QP:20.41 size: 15894
x264 [info]: frame B:131974 Avg QP:22.05 size: 4402
x264 [info]: consecutive B-frames: 3.0% 3.5% 8.3% 13.8% 15.2% 48.2% 5.7% 1.4% 0.9%
x264 [info]: mb I I16..4: 12.8% 71.7% 15.6%
x264 [info]: mb P I16..4: 1.0% 7.9% 1.0% P16..4: 34.6% 38.7% 11.2% 0.0% 0.0% skip: 5.6%
x264 [info]: mb B I16..4: 0.1% 0.5% 0.1% B16..8: 36.5% 17.3% 2.5% direct: 3.8% skip:39.3% L0:44.1% L1:47.7% BI: 8.2%
x264 [info]: 8x8 transform intra:77.3% inter:62.4%
x264 [info]: direct mvs spatial:98.7% temporal:1.3%
x264 [info]: coded y,uvDC,uvAC intra: 87.3% 86.4% 64.5% inter: 18.9% 20.8% 8.9%
x264 [info]: i16 v,h,dc,p: 20% 12% 14% 54%
x264 [info]: i8 v,h,dc,ddl,ddr,vr,hd,vl,hu: 7% 7% 7% 11% 15% 14% 14% 12% 13%
x264 [info]: i4 v,h,dc,ddl,ddr,vr,hd,vl,hu: 11% 8% 5% 9% 15% 14% 14% 11% 13%
x264 [info]: i8c dc,h,v,p: 39% 23% 18% 20%
x264 [info]: Weighted P-Frames: Y:12.2% UV:7.6%
x264 [info]: ref P L0: 43.4% 8.0% 21.0% 7.3% 6.6% 4.3% 4.4% 2.1% 2.4% 0.6% 0.1%
x264 [info]: ref B L0: 68.8% 13.8% 6.9% 3.8% 2.6% 2.3% 1.3% 0.5%
x264 [info]: ref B L1: 92.9% 7.1%
x264 [info]: kb/s:1428.79

x264 [total]: encoded 171630 frames, 7.36 fps, 1428.79 kb/s

GeneralComplete name : D:\Torrents\Ajeossi (The Man from Nowhere).2010.HDRip.x264.960x.rip by Frost O.S.mp4Format : MPEG-4Format profile : Base MediaCodec ID : isomFile size : 1.41 GiBDuration : 1h 59mnOverall bit rate mode : VariableOverall bit rate : 1 696 KbpsMovie name : Ajeossi (The Man from Nowhere) 2010 HDRip x264 960x rip by Frost O SContentType : Short FilmEncoded date : UTC 2016-02-24 16:39:00Tagged date : UTC 2016-02-24 16:40:22Writing application : MkvToMp4 version: 0.224 (x64)Cover : YesComment : rip by Frost O.S

VideoID : 1Format : AVCFormat/Info : Advanced Video CodecFormat profile : [email protected] settings, CABAC : YesFormat settings, ReFrames : 9 framesCodec ID : avc1Codec ID/Info : Advanced Video CodingDuration : 1h 59mnBit rate : 1 433 KbpsMaximum bit rate : 3 964 KbpsWidth : 960 pixelsHeight : 410 pixelsDisplay aspect ratio : 2.35:1Frame rate mode : ConstantFrame rate : 23.976 fpsColor space : YUVChroma subsampling : 4:2:0Bit depth : 8 bitsScan type : ProgressiveBits/(Pixel*Frame) : 0.152Stream size : 1.19 GiB (84%)Writing library : x264 core 130 r2273 b3065e6Encoding settings : cabac=1 / ref=9 / deblock=1:-3:-3 / analyse=0x3:0x113 / me=umh / subme=11 / psy=1 / psy_rd=1.00:0.15 / mixed_ref=1 / me_range=32 / chroma_me=1 / trellis=2 / 8x8dct=1 / cqm=0 / deadzone=21,11 / fast_pskip=0 / chroma_qp_offset=-3 / threads=3 / lookahead_threads=1 / sliced_threads=0 / nr=0 / decimate=0 / interlaced=0 / bluray_compat=0 / constrained_intra=0 / bframes=8 / b_pyramid=2 / b_adapt=2 / b_bias=0 / direct=3 / weightb=1 / open_gop=0 / weightp=2 / keyint=250 / keyint_min=23 / scenecut=40 / intra_refresh=0 / rc=2pass / mbtree=0 / bitrate=1433 / ratetol=1.0 / qcomp=0.60 / qpmin=0 / qpmax=69 / qpstep=4 / cplxblur=20.0 / qblur=0.5 / ip_ratio=1.40 / pb_ratio=1.30 / aq=1:0.80Language : EnglishEncoded date : UTC 2016-02-24 16:39:00Tagged date : UTC 2016-02-24 16:39:22Color primaries : BT.709Transfer characteristics : BT.709Matrix coefficients : BT.709Color range : Limited

Audio #1ID : 2Format : AACFormat/Info : Advanced Audio CodecFormat profile : LCCodec ID : 40Duration : 1h 59mnBit rate mode : VariableBit rate : 128 KbpsMaximum bit rate : 135 KbpsChannel(s) : 2 channelsChannel positions : Front: L RSampling rate : 48.0 KHzCompression mode : LossyStream size : 109 MiB (8%)Title : Serbin / SerbinLanguage : RussianEncoded date : UTC 2016-02-24 16:39:17Tagged date : UTC 2016-02-24 16:39:22

Audio #2ID : 3Format : AACFormat/Info : Advanced Audio CodecFormat profile : LCCodec ID : 40Duration : 1h 59mnBit rate mode : VariableBit rate : 128 KbpsMaximum bit rate : 135 KbpsChannel(s) : 2 channelsChannel positions : Front: L RSampling rate : 48.0 KHzCompression mode : LossyStream size : 109 MiB (8%)Title : _PD / _PDLanguage : RussianEncoded date : UTC 2016-02-24 16:39:20Tagged date : UTC 2016-02-24 16:39:22


Трекер:  [ 25-Фев-2016 18:00 ]

  

Скачать .torrent

Размер .torrent файла 14 KB


Размер: 1.41 GB
Хэш (hash) релиза: a8418e9a1d5f6f61b69b87ab77e964450487eada

Еще никто не оставлял запись к записи скачать торрент [VIDEO] Человек из ниоткуда Ajeossi . Будь первым!

!Обратная связь