Death Note | Business (General) | Hinamatsuri

Скачать через торрент [VIDEO] Человек из ниоткуда Ajeossi бесплатно русская версия torrent активатор

Статистика раздачи
Размер:  542 MB   |    Зарегистрирован:  2 года 4 месяца   |    .torrent скачан:  12 раз   |   
Раздают:  1  
   
загрузка...
 
Автор Сообщение

Galfimbul

avatar Galfimbul


Человек из ниоткуда / Ajeossi / The Man from Nowhere
«Nothing to lose, nothing to compromise»

Год выпуска: 2010
Страна: Корея Южная
Жанр: криминал, драма, триллер, боевик
Продолжительность: 01:59:18
Перевод: Авторский (Одноголосый, закадровый) Ю.Сербин
Cубтитры: нет
Режиссеры: Ли Чжон-Бом / Lee Jeong-beom
В ролях: Вон Бин, Сае-Рон Ким, Танаёнг Вонгтракул, Ким Те-хун и другие .
Описание: Чха Тхэ Сик — скромный владелец ломбарда. Девочка Чон Соме его соседка и дочь матери-одиночки, которая работает в баре танцовщицей и не столько увлекается воспитанием ребенка, сколько ищет острых ощущений на свою и без того повидавшую виды, неудавшуюся жизнь. И вот однажды мать Соме вместе со своим парнем решает обокрасть наркокурьера, который регулярно появляется в заведении, где она выступает…

Янг Ик-Юн первоначально должен был играть роль детектива, но из-за занятости в других проектах выбыл из фильма. Его роль отошла актеру Ким Тэ Хуну.
Съемки начались в декабре 2009.
Впечатляющую сцену, когда персонаж Вон Бина выпрыгивает из окна, преследуемый полицейскими, снимали несколько раз. Оператор бежал за актёром и прыгал за ним в окно.
Режиссер Ли Чжон Бом начал писать сценарий в январе 2009 года. Первый вариант был закончен за 3 месяца. Первоначально главный герой был прописан как 60-летний северокорейский агент (отголоски можно заметить в фильме), но затем переписан в 40-летнего мужчину. Случайно актёр Вон Бин прочитал сценарий и захотел сыграть главного героя. Главный герой и история его жизни были переписаны, чтобы объяснить молодость актёра.
Все трюки в фильме, несмотря на настояния режиссера на каскадере, Вон Бин исполнил сам.
У Вон Бина чёрный пояс по тхэквондо, но до этого фильма с холодным и огнестрельным оружием актёр дела не имел. Он тренировался 3 месяца перед съёмками, чтобы естественно выглядеть и двигаться с оружием в руках.
Режиссер Ли Чжон Бом взял идею для фильма в статье новостей о молодой девочке, которая жила в трудных условиях.
В сцене фильма, где главный герой использует полотенце, чтобы разоружить нож резким движением, в действительности движение запустило нож мимо голов съемочной группы.
Первоначально главную мужскую роль должен был играть Ким Мён Мин..

Релиз группы
Качество: HDRip / [url=...3799866]BDRip 720p[/url]
Формат: MP4
Видео кодек: XviD
Аудио кодек: AAC
Видео: 480x208 AR:2.35 499 kbps 23.976 fps
Аудио: [Русский] 2ch 48 kHz 128 kbps - [VO] Ю.Сербин
GeneralComplete name : D:\Torrents\Ajeossi (The Man from Nowhere).2010.HDRip.XviD.480x.rip by Frost O.S.mp4Format : MPEG-4Format profile : Base MediaCodec ID : isomFile size : 542 MiBDuration : 1h 59mnOverall bit rate mode : VariableOverall bit rate : 635 KbpsMovie name : Ajeossi (The Man from Nowhere) 2010 HDRip XviD 480x rip by Frost O SContentType : Short FilmEncoded date : UTC 2016-02-24 16:43:17Tagged date : UTC 2016-02-24 16:43:38Writing application : MkvToMp4 version: 0.224 (x64)Cover : Yes

VideoID : 1Format : MPEG-4 VisualFormat profile : Advanced [email protected] settings, BVOP : YesFormat settings, QPel : NoFormat settings, GMC : No warppointsFormat settings, Matrix : CustomCodec ID : 20Duration : 1h 59mnBit rate mode : VariableBit rate : 499 KbpsMaximum bit rate : 194 MbpsWidth : 480 pixelsHeight : 208 pixelsDisplay aspect ratio : 2.35:1Frame rate mode : VariableFrame rate : 23.976 fpsMinimum frame rate : 11.988 fpsMaximum frame rate : 23.976 fpsColor space : YUVChroma subsampling : 4:2:0Bit depth : 8 bitsScan type : ProgressiveCompression mode : LossyBits/(Pixel*Frame) : 0.209Stream size : 426 MiB (79%)Writing library : XviD 1.2.1 (UTC 2008-12-04)Language : EnglishTagged date : UTC 2016-02-24 16:43:21

AudioID : 2Format : AACFormat/Info : Advanced Audio CodecFormat profile : LCCodec ID : 40Duration : 1h 59mnBit rate mode : VariableBit rate : 128 KbpsMaximum bit rate : 135 KbpsChannel(s) : 2 channelsChannel positions : Front: L RSampling rate : 48.0 KHzCompression mode : LossyStream size : 109 MiB (20%)Title : Serbin / SerbinLanguage : RussianEncoded date : UTC 2016-02-24 16:43:18Tagged date : UTC 2016-02-24 16:43:21


Трекер:  [ 25-Фев-2016 18:00 ]

  

Скачать .torrent

Размер .torrent файла 11 KB


Размер: 542 MB
Хэш (hash) релиза: c65e678e75cc198a869a84db2f9b86e3b2713415

Еще никто не оставлял запись к записи скачать торрент [VIDEO] Человек из ниоткуда Ajeossi . Будь первым!

!Обратная связь