Stream Link 2 | Sam Brower | Man Fire Food

Скачать через торрент музыку Чёрный Джек: Два доктора тьмы Black Jack: The Two Doctors Of Darkness бесплатно без регистрации torrent

Статистика раздачи
Размер:  394 MB   |    Зарегистрирован:  2 года 4 месяца   |    .torrent скачан:  19 раз   |   
Раздают:  1  
   
загрузка...
 
Автор Сообщение

Galfimbul

avatar Galfimbul


Чёрный Джек: Два доктора тьмы / Black Jack: The Two Doctors Of Darkness

Название альбома: Black Jack: The Two Doctors Of Darkness (Original Soundtrack)
Композитор: Isao Tomita
Год выпуска: 2005 г.
Издатель (лейбл): Avex Traxx
Страна: Япония
Аудио кодек: FLAC (*.flac)
Тип рипа: image+.cue
Битрейт аудио: lossless
Продолжительность: 00:44:13
Источник: Диск из своей коллекции
Наличие сканов в содержимом раздачи: да

Треклист:
01. Dr. Pinoko's Forest Adventure (06:46)

02. Black Jack - Theme I (03:36)

03. Doctor Kiriko (02:46)

04. Black Jack - Theme II (02:08)

05. Kiriko VS BJ (01:24)

06. Black Jack - Theme III (04:18)

07. Destiny (03:36)

08. Prologue (02:37)

09. Feng Two Simultaneous (Album Mix Version) (01:56)

10. Icarus Island Of Mystery (02:28)

11. Car Сhase (01:08)

12. How Different Was Fate (02:12)

13. Another Black Doctor (02:11)

14. Icarus Island - Nocturne (02:18)

15. Tourbillon - Mou Ichido Kimi Ni (04:41)
Exact Audio Copy V1.0 beta 3 from 29. August 2011

Отчёт EAC об извлечении, выполненном 17. ноября 2015, 22:17

Isao Tomita / Black Jack The Two Doctors Of Darkness (Original Soundtrack)

Дисковод: HL-DT-STDVDRAM GU71N Adapter: 1 ID: 0

Режим чтения : ДостоверностьИспользование точного потока : ДаОтключение кэша аудио : ДаИспользование указателей C2 : Нет

Коррекция смещения при чтении : 6Способность читать области Lead-in и Lead-out : НетЗаполнение пропущенных сэмплов тишиной : ДаУдаление блоков с тишиной в начале и конце : НетПри вычислениях CRC использовались нулевые сэмплы : ДаИнтерфейс : Установленный внешний ASPI-интерфейс

Выходной формат : Пользовательский кодировщикВыбранный битрейт : 640 kBit/sКачество : ВысокийДобавление ID3-тега : НетУтилита сжатия : C:\Program Files (x86)\Exact Audio Copy\Flac\flac.exeДополнительные параметры : -V -8 -T "Date=%year%" -T "Genre=%genre%" %source%

TOC извлечённого CD

Трек | Старт | Длительность | Начальный сектор | Конечный сектор --------------------------------------------------------------------- 1 | 0:00.00 | 6:46.25 | 0 | 30474 2 | 6:46.25 | 3:36.25 | 30475 | 46699 3 | 10:22.50 | 2:46.12 | 46700 | 59161 4 | 13:08.62 | 2:08.60 | 59162 | 68821 5 | 15:17.47 | 1:24.00 | 68822 | 75121 6 | 16:41.47 | 4:18.20 | 75122 | 94491 7 | 20:59.67 | 3:36.65 | 94492 | 110756 8 | 24:36.57 | 2:37.43 | 110757 | 122574 9 | 27:14.25 | 1:56.70 | 122575 | 131344 10 | 29:11.20 | 2:28.45 | 131345 | 142489 11 | 31:39.65 | 1:08.47 | 142490 | 147636 12 | 32:48.37 | 2:12.55 | 147637 | 157591 13 | 35:01.17 | 2:11.58 | 157592 | 167474 14 | 37:13.00 | 2:18.35 | 167475 | 177859 15 | 39:31.35 | 4:41.67 | 177860 | 199001 16 | 46:45.27 | 27:12.48 | 210402 | 332849

Характеристики диапазона извлечения и сообщения об ошибках

Выбранный диапазон

Имя файла J:\Black Jack The Two Doctors Of Darkness (Original Soundtrack) [2005] [FLAC]\Isao Tomita - Black Jack The Two Doctors Of Darkness (Original Soundtrack).wav

Пиковый уровень 99.3 % Скорость извлечения 1.9 X Качество диапазона 99.9 % CRC теста B4CCA6F7 CRC копии B4CCA6F7 Копирование... OK

Ошибок не произошло

AccurateRip: сводка

Трек 1 отсутствует в базе данныхТрек 2 отсутствует в базе данныхТрек 3 отсутствует в базе данныхТрек 4 отсутствует в базе данныхТрек 5 отсутствует в базе данныхТрек 6 отсутствует в базе данныхТрек 7 отсутствует в базе данныхТрек 8 отсутствует в базе данныхТрек 9 отсутствует в базе данныхТрек 10 отсутствует в базе данныхТрек 11 отсутствует в базе данныхТрек 12 отсутствует в базе данныхТрек 13 отсутствует в базе данныхТрек 14 отсутствует в базе данныхТрек 15 отсутствует в базе данных

Ни одного трека нет в базе AccurateRip

Конец отчёта

==== Контрольная сумма отчёта 972E7E38D5A8946EBD2B82BD1EC9B482CB7F36AD806814F7C0185656B6B76AAF ====
Доп. информация: Оригинальный саундтрек ко второй полнометражке о Блэк Джеке с очень красивыми композициями.

Трекер:  [ 22-Фев-2016 11:30 ]

  

Скачать .torrent

Размер .torrent файла 16 KB


Размер: 394 MB
Хэш (hash) релиза: 6daf1770d2d61c38bd219e4c16048efc9e86b716

Еще никто не оставлял запись к записи скачать торрент Чёрный Джек: Два доктора тьмы Black Jack: The Two Doctors Of Darkness . Будь первым!

!Обратная связь