Pictures - All | Mobile Suit Gundam : Iron Blooded Orphans Season 2 Subtitle Indonesia | 252,617 03:43 Bujang Senang Awie Wings

Скачать через торрент [MULT] Головоломка Inside Out бесплатно русская версия torrent активатор

Статистика раздачи
Размер:  1.59 GB   |    Зарегистрирован:  2 года 5 месяцев   |    .torrent скачан:  48 раз   |   
Раздают:  1  
   
загрузка...
 
Автор Сообщение

Galfimbul

avatar Galfimbul


Головоломка / Inside Out
Год выпуска: 2015
Продолжительность: 01:34:50
Производство: США
Жанр: комедия, семейный
Перевод: Профессиональный (дублированный) Blu-ray CEE
Субтитры: нет
Дата мировой премьеры: 18 мая 2015
Режиссер: Пит Доктер, Роналдо Дель Кармен / Pete Docter, Ronnie Del Carmen
Роли озвучивали: Льюис Блэк, Минди Кейлинг, Билл Хейдер, Эми Полер, Филлис Смит, Ричард Кайнд, Кейтлин Диас, Дайан Лэйн, Кайл МакЛоклен, Пола Паундстон
Описание фильма:
Райли — обычная 11-летняя школьница, и, как у каждого из нас, ее поведение определяют пять базовых эмоций: Радость, Печаль, Страх, Гнев и Брезгливость. Эмоции живут в сознании девочки и каждый день помогают ей справляться с проблемами, руководя всеми ее поступками. До поры до времени эмоции живут дружно, но вдруг оказывается, что Райли и ее родителям предстоит переезд из небольшого уютного городка в шумный и людный мегаполис. Каждая из эмоций считает, что именно она лучше прочих знает, что нужно делать в этой непростой ситуации, и в голове у девочки наступает полная неразбериха. Чтобы наладить жизнь в большом городе, освоиться в новой школе и подружиться с одноклассниками, эмоциям Райли предстоит снова научиться работать сообща.
Рейтинг:

Качество: BDRip [url=...5112120][Исходник BDRip][/url] | Формат: MP4 | Видео кодек: H.264 | Аудио кодек: AAC
Видео: 1280x720 (AR 16:9), 2267 Kbps, 23.976 fps | Аудио: 128 Kbps, 48.0 KHz, 2ch, Stereo
General
Complete name : K:\Torrents\Мои раздачи\[MULTFORPDA] Inside Out [1280x]\Inside Out (BDRip 1280x720 x264 AAC).mp4
Format : MPEG-4
Format profile : Base Media
Codec ID : isom
File size : 1.59 GiB
Duration : 1h 34mn
Overall bit rate mode : Variable
Overall bit rate : 2 398 Kbps
Encoded date : UTC 2015-11-15 02:04:03
Tagged date : UTC 2015-11-15 02:04:03

Video
ID : 1
Format : AVC
Format/Info : Advanced Video Codec
Format profile : H[email protected]
Format settings, CABAC : Yes
Format settings, ReFrames : 8 frames
Codec ID : avc1
Codec ID/Info : Advanced Video Coding
Duration : 1h 34mn
Bit rate : 2 267 Kbps
Maximum bit rate : 15.2 Mbps
Width : 1 280 pixels
Height : 720 pixels
Display aspect ratio : 16:9
Frame rate mode : Constant
Frame rate : 23.976 fps
Color space : YUV
Chroma subsampling : 4:2:0
Bit depth : 8 bits
Scan type : Progressive
Bits/(Pixel*Frame) : 0.103
Stream size : 1.50 GiB (95%)
Writing library : x264 core 130 r2273 b3065e6
Encoding settings : cabac=1 / ref=8 / deblock=1:-1:-1 / analyse=0x3:0x133 / me=umh / subme=7 / psy=1 / psy_rd=1.00:0.10 / mixed_ref=1 / me_range=16 / chroma_me=1 / trellis=2 / 8x8dct=1 / cqm=0 / deadzone=21,11 / fast_pskip=0 / chroma_qp_offset=-3 / threads=4 / lookahead_threads=1 / sliced_threads=0 / nr=0 / decimate=1 / interlaced=0 / bluray_compat=0 / constrained_intra=0 / bframes=8 / b_pyramid=2 / b_adapt=2 / b_bias=0 / direct=3 / weightb=1 / open_gop=0 / weightp=2 / keyint=250 / keyint_min=23 / scenecut=40 / intra_refresh=0 / rc_lookahead=50 / rc=crf / mbtree=1 / crf=20.0 / qcomp=0.60 / qpmin=0 / qpmax=69 / qpstep=4 / ip_ratio=1.40 / aq=1:1.00
Encoded date : UTC 2015-11-15 02:04:03
Tagged date : UTC 2015-11-15 02:05:16

Audio
ID : 2
Format : AAC
Format/Info : Advanced Audio Codec
Format profile : LC
Codec ID : 40
Duration : 1h 34mn
Bit rate mode : Variable
Bit rate : 128 Kbps
Maximum bit rate : 190 Kbps
Channel(s) : 2 channels
Channel positions : Front: L R
Sampling rate : 48.0 KHz
Compression mode : Lossy
Delay relative to video : 125ms
Stream size : 86.8 MiB (5%)
Encoded date : UTC 2015-11-15 02:05:13
Tagged date : UTC 2015-11-15 02:05:16
x264 [info]: frame I:1392 Avg QP:15.34 size:132290
x264 [info]: frame P:34133 Avg QP:18.99 size: 24612
x264 [info]: frame B:100894 Avg QP:22.52 size: 5826
x264 [info]: consecutive B-frames: 3.2% 3.3% 10.7% 39.7% 20.4% 18.8% 2.6% 0.6% 0.7%
x264 [info]: mb I I16..4: 10.3% 67.6% 22.1%
x264 [info]: mb P I16..4: 4.1% 8.6% 0.9% P16..4: 44.5% 10.7% 11.7% 0.4% 0.2% skip:18.9%
x264 [info]: mb B I16..4: 0.2% 0.8% 0.1% B16..8: 29.2% 4.1% 0.9% direct: 3.5% skip:61.2% L0:41.3% L1:49.0% BI: 9.7%
x264 [info]: 8x8 transform intra:65.1% inter:69.0%
x264 [info]: direct mvs spatial:99.8% temporal:0.2%
x264 [info]: coded y,uvDC,uvAC intra: 61.4% 80.8% 55.2% inter: 9.7% 17.9% 3.7%
x264 [info]: i16 v,h,dc,p: 47% 16% 4% 33%
x264 [info]: i8 v,h,dc,ddl,ddr,vr,hd,vl,hu: 17% 21% 16% 6% 8% 8% 9% 8% 8%
x264 [info]: i4 v,h,dc,ddl,ddr,vr,hd,vl,hu: 18% 22% 12% 6% 10% 9% 10% 6% 7%
x264 [info]: i8c dc,h,v,p: 45% 23% 18% 13%
x264 [info]: Weighted P-Frames: Y:1.7% UV:1.0%
x264 [info]: ref P L0: 58.1% 11.0% 14.2% 5.2% 3.6% 3.5% 2.5% 1.7% 0.3% 0.0%
x264 [info]: ref B L0: 83.6% 7.4% 4.1% 1.8% 1.6% 1.0% 0.4%
x264 [info]: ref B L1: 94.6% 5.4%
x264 [info]: kb/s:2266.63

Релиз подготовлен:



Трекер:  [ 15-Фев-2016 20:00 ]

  

Скачать .torrent

Размер .torrent файла 16 KB


Размер: 1.59 GB
Хэш (hash) релиза: d05199e85ae27c559398db484b08122933250c3e

Еще никто не оставлял запись к записи скачать торрент [MULT] Головоломка Inside Out . Будь первым!

!Обратная связь