Regarder Marvel's Luke Cage - Saison 2 en Streaming | Frantic | 1988 | 720p | Dual | Télécharger Part 15

Скачать через торрент [VIDEO] 007: СПЕКТР Spectre бесплатно русская версия torrent активатор

Статистика раздачи
Размер:  2.42 GB   |    Зарегистрирован:  2 года 5 месяцев   |    .torrent скачан:  50 раз   |   
Раздают:  1  
   
загрузка...
 
Автор Сообщение

Galfimbul

avatar Galfimbul


007: СПЕКТР / Spectre«The Dead Are Alive»
Год выпуска: 2015
Оригинальное название: Spectre
Страна: Великобритания, США
Жанр: боевик, триллер, приключения
Возраст: 16+

Режиссер: Сэм Мендес

В ролях: Дэниэл Крэйг, Кристоф Вальц, Леа Сейду, Рэйф Файнс, Моника Беллуччи, Бен Уишоу, Наоми Харрис, Дэйв Батиста, Эндрю Скотт, Рори Киннер, Еспер Кристенсен, Алессандро Кремона, Стефани Сигман, Теноч Уэрта, Адриана Пас, Доменико Фортунато, Йен Бонар, Там Уильямс, Ричард Бенхем, Пип Картер

Описание: Зашифрованное послание из неизвестного источника выводит Бонда на след зловещей глобальной организации под кодовым названием СПЕКТР, в то время как М пытается спасти секретную разведывательную службу от ликвидации.

Продолжительность: 02:28:06
Перевод: Дублированный [Лицензия]
Оригинальная дорожка: нет

Автор рипа:

Качество видео: BDRip Исходник: Blu-Ray (1080p) Формат: mp4
Видео кодек: MPEG-4 AVC Аудио кодек: AAC
Видео: 1280x536 at 23.976 fps, AVC at 2 207 kbps avg, 0.134 bit/pixel
Аудио №1 Rus: 48.0 KHz, AAC, 2 ch, 128.0 Kbps
Субтитры: нет
Навигация по главам: нет
avs [info]: 1280x536p 1:1 @ 24000/1001 fps (cfr)
x264 [info]: using SAR=1/1
x264 [info]: using cpu capabilities: MMX2 SSE2Fast SSSE3 Cache64
x264 [info]: profile High, level 4.1
x264 [info]: frame I:1831 Avg QP:16.15 size:105075
x264 [info]: frame P:44803 Avg QP:19.01 size: 24135
x264 [info]: frame B:166437 Avg QP:20.75 size: 7076
x264 [info]: consecutive B-frames: 2.0% 3.3% 8.1% 11.3% 13.4% 52.1% 9.9%
x264 [info]: mb I I16..4: 16.2% 66.3% 17.5%
x264 [info]: mb P I16..4: 1.2% 8.3% 1.0% P16..4: 44.5% 15.9% 13.8% 0.5% 0.2% skip:14.6%
x264 [info]: mb B I16..4: 0.1% 0.8% 0.1% B16..8: 48.4% 6.7% 1.2% direct: 3.3% skip:39.5% L0:46.1% L1:48.8% BI: 5.1%
x264 [info]: 8x8 transform intra:77.1% inter:69.9%
x264 [info]: direct mvs spatial:100.0% temporal:0.0%
x264 [info]: coded y,uvDC,uvAC intra: 85.4% 72.0% 40.8% inter: 18.6% 16.2% 1.3%
x264 [info]: i16 v,h,dc,p: 18% 16% 22% 44%
x264 [info]: i8 v,h,dc,ddl,ddr,vr,hd,vl,hu: 15% 15% 29% 5% 7% 7% 8% 7% 8%
x264 [info]: i4 v,h,dc,ddl,ddr,vr,hd,vl,hu: 20% 18% 15% 6% 9% 8% 9% 7% 7%
x264 [info]: i8c dc,h,v,p: 54% 20% 19% 8%
x264 [info]: Weighted P-Frames: Y:3.1% UV:1.7%
x264 [info]: ref P L0: 45.3% 10.3% 19.2% 6.6% 6.0% 4.0% 3.9% 2.0% 2.2% 0.4% 0.0%
x264 [info]: ref B L0: 69.0% 14.0% 7.1% 3.5% 2.5% 2.2% 1.2% 0.4%
x264 [info]: ref B L1: 90.7% 9.3%
x264 [info]: kb/s:2206.86
encoded 213071 frames, 2.75 fps, 2206.86 kb/s
GeneralComplete name : E:\007_spektr.2015_KinoGadget.mp4Format : MPEG-4Format profile : Base MediaCodec ID : isomFile size : 2.42 GiBDuration : 2h 28mnOverall bit rate mode : VariableOverall bit rate : 2 342 KbpsMovie name : 007: СПЕКТР | KinoGadgetPerformer : Сэм МендесGenre : Action, Adventure, ThrillerContentType : Short FilmRecorded date : 2015Encoded date : UTC 2016-02-14 17:39:25Tagged date : UTC 2016-02-14 18:05:20Cover : YesContentRating : mpaa|PG-13|300|

LongDescription : Зашифрованное послание из неизвестного источника выводит Бонда на след зловещей глобальной организации под кодовым названием СПЕКТР, в то время как М пытается спасти секретную разведывательную службу от ликвидации.HDVideo : Yes

VideoID : 1Format : AVCFormat/Info : Advanced Video CodecFormat profile : [email protected] settings, CABAC : YesFormat settings, ReFrames : 9 framesCodec ID : avc1Codec ID/Info : Advanced Video CodingDuration : 2h 28mnBit rate : 2 207 KbpsMaximum bit rate : 19.0 MbpsWidth : 1 280 pixelsHeight : 536 pixelsDisplay aspect ratio : 2.40:1Frame rate mode : ConstantFrame rate : 23.976 fpsColor space : YUVChroma subsampling : 4:2:0Bit depth : 8 bitsScan type : ProgressiveBits/(Pixel*Frame) : 0.134Stream size : 2.28 GiB (94%)Writing library : x264 core 148 r2638 7599210Encoding settings : cabac=1 / ref=9 / deblock=1:-1:-1 / analyse=0x3:0x133 / me=umh / subme=7 / psy=1 / psy_rd=1.00:0.15 / mixed_ref=1 / me_range=24 / chroma_me=1 / trellis=2 / 8x8dct=1 / cqm=0 / deadzone=21,11 / fast_pskip=1 / chroma_qp_offset=-3 / threads=3 / lookahead_threads=1 / sliced_threads=0 / nr=0 / decimate=1 / interlaced=0 / bluray_compat=0 / constrained_intra=0 / bframes=6 / b_pyramid=2 / b_adapt=2 / b_bias=0 / direct=3 / weightb=1 / open_gop=0 / weightp=2 / keyint=240 / keyint_min=23 / scenecut=40 / intra_refresh=0 / rc_lookahead=60 / rc=crf / mbtree=1 / crf=19.0 / qcomp=0.60 / qpmin=0 / qpmax=69 / qpstep=4 / ip_ratio=1.40 / aq=1:1.00Language : EnglishEncoded date : UTC 2016-02-14 16:59:31Tagged date : UTC 2016-02-14 17:41:19

AudioID : 2Format : AACFormat/Info : Advanced Audio CodecFormat profile : LCCodec ID : 40Duration : 2h 28mnBit rate mode : VariableBit rate : 128 KbpsMaximum bit rate : 135 KbpsChannel count : 2 channelsChannel positions : Front: L RSampling rate : 48.0 KHzCompression mode : LossyStream size : 136 MiB (5%)Language : RussianEncoded date : UTC 2016-02-14 16:45:45Tagged date : UTC 2016-02-14 17:41:19
[url=...39840292] [/url]

Трекер:  [ 14-Фев-2016 20:30 ]

  

Скачать .torrent

Размер .torrent файла 12 KB


Размер: 2.42 GB
Хэш (hash) релиза: 6f87a447862406cc87c9c9a08b4cd63199abd1f2

Торренты, похожие на [VIDEO] 007: СПЕКТР Spectre скачать торрент

Форум Название Автор Размер S L Добавлен
Видео (Фильмы/Клипы) ·· [VIDEO] 007: СПЕКТР / Spectre (Сэм Мендес / Sam Mendes) [2015, США, Великобритания, боевик, триллер, приключения, HDRip][MP4, 480x] Dub Galfimbul 716350179683 MB 0 0 1455357261

12:54

13-Фев-16

Еще никто не оставлял запись к записи скачать торрент [VIDEO] 007: СПЕКТР Spectre . Будь первым!

!Обратная связь