Books Directory | This is Lean | Starship Operators

Скачать через торрент [VIDEO] Игра на выживание Beyond the Reach бесплатно русская версия torrent активатор

Статистика раздачи
Размер:  1.82 GB   |    Зарегистрирован:  2 года 5 месяцев   |    .torrent скачан:  15 раз   |   
Раздают:  1  
   
загрузка...
 
Автор Сообщение

Galfimbul

avatar Galfimbul


Игра на выживание / Beyond the Reach«What began as an accident has become a deadly game»
Год выпуска: 2014
Оригинальное название: Beyond the Reach
Страна: США
Жанр: триллер
Возраст: 18+

Режиссер: Жан-Батист Леонетти

В ролях: Майкл Дуглас, Джереми Ирвин, Ханна Мэнгэн Лоуренс, Ронни Кокс, Патрисия Бетун, Мартин Палмер, Дэвид Гарвер

Описание: Корпоративная акула и его бедный молодой гид сыграют в самую опасную игру во время охоты в пустыне Мохаве.

Продолжительность: 01:30:22
Перевод: Дублированный [IPTV]
Оригинальная дорожка: нет

Автор рипа:

Качество видео: BDRip Исходник: Blu-Ray Remux (1080p) Формат: mp4
Видео кодек: MPEG-4 AVC Аудио кодек: AAC
Видео: 1280x532 at 23.976 fps, AVC at 2 749 kbps avg, 0.168 bit/pixel
Аудио №1 Rus: 48.0 KHz, AAC, 2 ch, 128.0 Kbps
Субтитры: нет
Навигация по главам: нет
avs [info]: 1280x532p 1:1 @ 24000/1001 fps (cfr)
x264 [info]: using SAR=1/1
x264 [info]: using cpu capabilities: MMX2 SSE2Fast SSSE3 Cache64
x264 [info]: profile High, level 4.1
x264 [info]: frame I:1458 Avg QP:14.90 size:134530
x264 [info]: frame P:25872 Avg QP:18.94 size: 32837
x264 [info]: frame B:102691 Avg QP:21.41 size: 7966
x264 [info]: consecutive B-frames: 2.3% 2.4% 6.3% 12.5% 13.1% 43.9% 7.1% 2.0% 5.2% 2.2% 3.0%
x264 [info]: mb I I16..4: 14.4% 58.3% 27.3%
x264 [info]: mb P I16..4: 1.8% 10.5% 1.8% P16..4: 39.7% 15.7% 15.1% 0.8% 0.5% skip:14.2%
x264 [info]: mb B I16..4: 0.1% 1.0% 0.2% B16..8: 37.9% 6.3% 1.4% direct: 5.1% skip:47.9% L0:43.9% L1:46.7% BI: 9.4%
x264 [info]: 8x8 transform intra:71.0% inter:65.7%
x264 [info]: direct mvs spatial:99.7% temporal:0.3%
x264 [info]: coded y,uvDC,uvAC intra: 75.2% 82.2% 60.3% inter: 19.2% 24.6% 5.7%
x264 [info]: i16 v,h,dc,p: 32% 14% 12% 41%
x264 [info]: i8 v,h,dc,ddl,ddr,vr,hd,vl,hu: 16% 13% 29% 5% 7% 7% 8% 7% 8%
x264 [info]: i4 v,h,dc,ddl,ddr,vr,hd,vl,hu: 36% 13% 12% 5% 8% 7% 8% 6% 6%
x264 [info]: i8c dc,h,v,p: 57% 18% 17% 8%
x264 [info]: Weighted P-Frames: Y:10.6% UV:6.4%
x264 [info]: ref P L0: 49.2% 12.5% 18.9% 6.4% 5.4% 3.6% 3.6% 0.5% 0.1%
x264 [info]: ref B L0: 76.1% 12.7% 6.1% 3.1% 1.4% 0.6%
x264 [info]: ref B L1: 92.2% 7.8%
x264 [info]: kb/s:2749.44
encoded 130021 frames, 2.57 fps, 2749.44 kb/s
GeneralComplete name : E:\Igra_na_vyzhivanie.2014_KinoGadget.mp4Format : MPEG-4Format profile : Base MediaCodec ID : isomFile size : 1.82 GiBDuration : 1h 30mnOverall bit rate mode : VariableOverall bit rate : 2 885 KbpsMovie name : Игра на выживание | KinoGadgetPerformer : Жан-Батист ЛеонеттиGenre : ThrillerContentType : Short FilmRecorded date : 2014Encoded date : UTC 2016-02-13 09:14:47Tagged date : UTC 2016-02-13 09:22:04Cover : YesContentRating : mpaa|R|400|

LongDescription : Корпоративная акула и его бедный молодой гид сыграют в самую опасную игру во время охоты в пустыне Мохаве.HDVideo : Yes

VideoID : 1Format : AVCFormat/Info : Advanced Video CodecFormat profile : [email protected] settings, CABAC : YesFormat settings, ReFrames : 7 framesCodec ID : avc1Codec ID/Info : Advanced Video CodingDuration : 1h 30mnBit rate : 2 749 KbpsMaximum bit rate : 15.2 MbpsWidth : 1 280 pixelsHeight : 532 pixelsDisplay aspect ratio : 2.40:1Frame rate mode : ConstantFrame rate : 23.976 fpsColor space : YUVChroma subsampling : 4:2:0Bit depth : 8 bitsScan type : ProgressiveBits/(Pixel*Frame) : 0.168Stream size : 1.74 GiB (95%)Writing library : x264 core 148 r2638 7599210Encoding settings : cabac=1 / ref=7 / deblock=1:-1:-1 / analyse=0x3:0x133 / me=umh / subme=7 / psy=1 / psy_rd=1.00:0.15 / mixed_ref=1 / me_range=24 / chroma_me=1 / trellis=2 / 8x8dct=1 / cqm=0 / deadzone=21,11 / fast_pskip=1 / chroma_qp_offset=-3 / threads=3 / lookahead_threads=1 / sliced_threads=0 / nr=0 / decimate=1 / interlaced=0 / bluray_compat=0 / constrained_intra=0 / bframes=10 / b_pyramid=2 / b_adapt=2 / b_bias=0 / direct=3 / weightb=1 / open_gop=0 / weightp=2 / keyint=240 / keyint_min=23 / scenecut=40 / intra_refresh=0 / rc_lookahead=60 / rc=crf / mbtree=1 / crf=19.0 / qcomp=0.60 / qpmin=0 / qpmax=69 / qpstep=4 / ip_ratio=1.40 / aq=1:1.00Language : EnglishEncoded date : UTC 2016-02-13 09:11:57Tagged date : UTC 2016-02-13 09:16:11

AudioID : 2Format : AACFormat/Info : Advanced Audio CodecFormat profile : LCCodec ID : 40Duration : 1h 30mnBit rate mode : VariableBit rate : 128 KbpsMaximum bit rate : 135 KbpsChannel count : 2 channelsChannel positions : Front: L RSampling rate : 48.0 KHzCompression mode : LossyStream size : 82.6 MiB (4%)Language : RussianEncoded date : UTC 2016-02-13 09:09:20Tagged date : UTC 2016-02-13 09:16:11
[url=...39840292] [/url]

Трекер:  [ 13-Фев-2016 11:30 ]

  

Скачать .torrent

Размер .torrent файла 18 KB


Размер: 1.82 GB
Хэш (hash) релиза: 1b376d865da91a5adce8b8f19230468cc1032865

Еще никто не оставлял запись к записи скачать торрент [VIDEO] Игра на выживание Beyond the Reach . Будь первым!

!Обратная связь