Все Жанры | Here's to Us | The Fosters

Скачать через торрент [VIDEO] Пэн: Путешествие в Нетландию Pan бесплатно русская версия torrent активатор

Статистика раздачи
Размер:  2.24 GB   |    Зарегистрирован:  2 года 5 месяцев   |    .torrent скачан:  21 раз   |   
Раздают:  1  
   
загрузка...
 
Автор Сообщение

Galfimbul

avatar Galfimbul


Пэн: Путешествие в Нетландию / Pan«У каждой легенды есть своё начало»
Год выпуска: 2015
Оригинальное название: Pan
Страна: США, Великобритания, Австралия
Жанр: фэнтези, приключения, семейный
Возраст: 6+

Режиссер: Джо Райт

В ролях: Хью Джекман, Леви Миллер, Гаррет Хедлунд, Руни Мара, Адиль Ахтар, Нонсо Анози, Аманда Сайфред, Кэти Бёрк, Льюис МакДугалл, Кара Делевинь, Тхэ-чжу На, Джек Чарльз, Бронсон Уэбб, Майк Шеперд, Брайан Бовелл, Курт Эгиаван, Джимми Ви, Пол Хантер, Спенсер Уидлинг, Дин Нолан

Описание: История о сироте, который попал в волшебную Нетландию, где его поджидали опасные приключения. Там он понял, что его судьба — стать героем, который навсегда останется известен под именем Питер Пэн.

Продолжительность: 01:51:32
Перевод: Дублированный [Лицензия]
Оригинальная дорожка: нет

Автор рипа:

Качество видео: BDRip Исходник: Blu-Ray Remux (1080p) Формат: mp4
Видео кодек: MPEG-4 AVC Аудио кодек: AAC
Видео: 1280x532 at 23.976 fps, AVC at 2 745 kbps avg, 0.168 bit/pixel
Аудио №1 Rus: 48.0 KHz, AAC, 2 ch, 128.0 Kbps
Субтитры: русские (Forced)
Навигация по главам: есть
avs [info]: 1280x532p 1:1 @ 24000/1001 fps (cfr)
x264 [info]: using SAR=1/1
x264 [info]: using cpu capabilities: MMX2 SSE2Fast SSSE3 Cache64
x264 [info]: profile High, level 4.1
x264 [info]: frame I:1366 Avg QP:15.27 size:113050
x264 [info]: frame P:35506 Avg QP:19.14 size: 30251
x264 [info]: frame B:123577 Avg QP:21.74 size: 8639
x264 [info]: consecutive B-frames: 2.2% 2.6% 7.1% 29.8% 14.9% 27.5% 7.4% 7.5% 1.1%
x264 [info]: mb I I16..4: 8.4% 67.9% 23.8%
x264 [info]: mb P I16..4: 1.9% 15.5% 2.3% P16..4: 39.0% 17.6% 13.7% 0.7% 0.4% skip: 8.9%
x264 [info]: mb B I16..4: 0.2% 1.6% 0.4% B16..8: 40.5% 8.3% 1.9% direct: 4.8% skip:42.2% L0:42.5% L1:48.2% BI: 9.3%
x264 [info]: 8x8 transform intra:76.1% inter:69.7%
x264 [info]: direct mvs spatial:100.0% temporal:0.0%
x264 [info]: coded y,uvDC,uvAC intra: 77.4% 84.5% 56.2% inter: 21.6% 23.9% 4.1%
x264 [info]: i16 v,h,dc,p: 25% 13% 8% 54%
x264 [info]: i8 v,h,dc,ddl,ddr,vr,hd,vl,hu: 20% 13% 17% 6% 9% 9% 9% 8% 8%
x264 [info]: i4 v,h,dc,ddl,ddr,vr,hd,vl,hu: 32% 12% 11% 6% 10% 9% 8% 7% 6%
x264 [info]: i8c dc,h,v,p: 53% 17% 20% 9%
x264 [info]: Weighted P-Frames: Y:6.6% UV:2.7%
x264 [info]: ref P L0: 49.5% 14.1% 17.1% 6.3% 5.1% 3.7% 3.7% 0.5% 0.0%
x264 [info]: ref B L0: 80.9% 9.8% 4.8% 2.6% 1.4% 0.6%
x264 [info]: ref B L1: 94.5% 5.5%
x264 [info]: kb/s:2744.86
encoded 160449 frames, 3.10 fps, 2744.86 kb/s
GeneralComplete name : E:\Pen_puteshestvie_v_netlandiyu.2015_KinoGadget.mp4Format : MPEG-4Format profile : Base MediaCodec ID : isomFile size : 2.24 GiBDuration : 1h 51mnOverall bit rate mode : VariableOverall bit rate : 2 881 KbpsMovie name : Пэн: Путешествие в Нетландию | KinoGadgetPerformer : Джо РайтGenre : Adventure, FamilyContentType : Short FilmRecorded date : 2015Encoded date : UTC 2016-02-11 15:24:28Tagged date : UTC 2016-02-11 15:37:55Cover : YesContentRating : mpaa|PG|200|

LongDescription : История о сироте, который попал в волшебную Нетландию, где его поджидали опасные приключения. Там он понял, что его судьба — стать героем, который навсегда останется известен под именем Питер Пэн.HDVideo : Yes

VideoID : 1Format : AVCFormat/Info : Advanced Video CodecFormat profile : [email protected] settings, CABAC : YesFormat settings, ReFrames : 7 framesCodec ID : avc1Codec ID/Info : Advanced Video CodingDuration : 1h 51mnBit rate : 2 745 KbpsMaximum bit rate : 15.4 MbpsWidth : 1 280 pixelsHeight : 532 pixelsDisplay aspect ratio : 2.40:1Frame rate mode : ConstantFrame rate : 23.976 fpsColor space : YUVChroma subsampling : 4:2:0Bit depth : 8 bitsScan type : ProgressiveBits/(Pixel*Frame) : 0.168Stream size : 2.14 GiB (95%)Writing library : x264 core 148 r2638 7599210Encoding settings : cabac=1 / ref=7 / deblock=1:-1:-1 / analyse=0x3:0x133 / me=umh / subme=7 / psy=1 / psy_rd=1.00:0.15 / mixed_ref=1 / me_range=24 / chroma_me=1 / trellis=2 / 8x8dct=1 / cqm=0 / deadzone=21,11 / fast_pskip=1 / chroma_qp_offset=-3 / threads=3 / lookahead_threads=1 / sliced_threads=0 / nr=0 / decimate=1 / interlaced=0 / bluray_compat=0 / constrained_intra=0 / bframes=8 / b_pyramid=2 / b_adapt=2 / b_bias=0 / direct=3 / weightb=1 / open_gop=0 / weightp=2 / keyint=240 / keyint_min=23 / scenecut=40 / intra_refresh=0 / rc_lookahead=60 / rc=crf / mbtree=1 / crf=19.0 / qcomp=0.60 / qpmin=0 / qpmax=69 / qpstep=4 / ip_ratio=1.40 / aq=1:1.00Language : EnglishEncoded date : UTC 2016-02-11 14:48:21Tagged date : UTC 2016-02-11 15:26:07

AudioID : 2Format : AACFormat/Info : Advanced Audio CodecFormat profile : LCCodec ID : 40Duration : 1h 51mnBit rate mode : VariableBit rate : 128 KbpsMaximum bit rate : 135 KbpsChannel count : 2 channelsChannel positions : Front: L RSampling rate : 48.0 KHzCompression mode : LossyStream size : 102 MiB (4%)Language : RussianEncoded date : UTC 2016-02-11 14:41:35Tagged date : UTC 2016-02-11 15:26:07

TextID : 3Format : Timed TextCodec ID : tx3gDuration : 1h 42mnBit rate mode : VariableBit rate : 1 bpsStream size : 722 Bytes (0%)Language : RussianEncoded date : UTC 2016-02-11 15:26:07Tagged date : UTC 2016-02-11 15:26:07

Menu00:00:00.000 : 00:00:00.00000:10:28.419 : 00:10:28.41900:19:45.851 : 00:19:45.85100:31:07.282 : 00:31:07.28200:39:14.060 : 00:39:14.06000:48:27.863 : 00:48:27.86301:00:07.562 : 01:00:07.56201:09:29.374 : 01:09:29.37401:20:12.808 : 01:20:12.80801:30:02.897 : 01:30:02.89701:39:51.027 : 01:39:51.02701:43:05.888 : 01:43:05.888
[url=...39840292] [/url]

Трекер:  [ 11-Фев-2016 18:00 ]

  

Скачать .torrent

Размер .torrent файла 11 KB


Размер: 2.24 GB
Хэш (hash) релиза: ccae17e4d2d7d196d983d311d8ce8dc879e5d38e

Еще никто не оставлял запись к записи скачать торрент [VIDEO] Пэн: Путешествие в Нетландию Pan . Будь первым!

!Обратная связь