The File on Thelma Jordon | Lia Cohen | OpenLoad

Скачать через торрент [VIDEO] Волк с Уолл-стрит The Wolf of Wall Street бесплатно русская версия torrent активатор

Статистика раздачи
Размер:  3.22 GB   |    Зарегистрирован:  2 года 5 месяцев   |    .torrent скачан:  113 раз   |   
Раздают:  1  
   
загрузка...
 
Автор Сообщение

Galfimbul

avatar Galfimbul


Волк с Уолл-стрит / The Wolf of Wall Street

Год выпуска: 2013
Оригинальное название: The Wolf of Wall Street
Страна: США
Жанр: драма, комедия, криминал, биография
Возраст: 18+

Режиссер: Мартин Скорсезе

В ролях: Леонардо ДиКаприо, Джона Хилл, Марго Робби, Мэттью МакКонахи, Кайл Чандлер, Роб Райнер, Джон Фавро, Жан Дюжарден, Ши Уигхэм, Спайк Джонз, Джон Бернтал, Джоанна Ламли, Кристин Милиоти, Кристин Эберсоул, Катарина Кэс, П.Дж. Бирн, Кеннет Чои

Описание: 1987 год. Джордан Белфорт становится брокером в успешном инвестиционном банке. Вскоре банк закрывается после внезапного обвала индекса Доу-Джонса. По совету жены Терезы Джордан устраивается в небольшое заведение, занимающееся мелкими акциями. Его настойчивый стиль общения с клиентами и врождённая харизма быстро даёт свои плоды. Он знакомится с соседом по дому Донни, торговцем, который сразу находит общий язык с Джорданом и решает открыть с ним собственную фирму. В качестве сотрудников они нанимают нескольких друзей Белфорта, его отца Макса и называют компанию «Стрэттон Оукмонт». В свободное от работы время Джордан прожигает жизнь: лавирует от одной вечеринки к другой, вступает в сексуальные отношения с проститутками, употребляет множество наркотических препаратов, в том числе кокаин и кваалюд. Однажды наступает момент, когда быстрым обогащением Белфорта начинает интересоваться агент ФБР…

Продолжительность: 02:59:52
Перевод: Дублированный [Лицензия]
Оригинальная дорожка: нет

Автор рипа:

Качество видео: BDRip Исходник: Blu-Ray Remux (1080p) Формат: mp4
Видео кодек: MPEG-4 AVC Аудио кодек: AAC
Видео: 1280x532 at 23.976 fps, AVC at 2 429 kbps avg, 0.149 bit/pixel
Аудио №1 Rus: 48.0 KHz, AAC, 2 ch, 128.0 Kbps
Субтитры: нет
Навигация по главам: нет
avs [info]: 1280x532p 1:1 @ 24000/1001 fps (cfr)
x264 [info]: using SAR=1/1
x264 [info]: using cpu capabilities: MMX2 SSE2Fast SSSE3 Cache64
x264 [info]: profile High, level 4.1
x264 [info]: frame I:2198 Avg QP:15.38 size:118225
x264 [info]: frame P:52477 Avg QP:19.01 size: 28540
x264 [info]: frame B:204083 Avg QP:21.48 size: 7442
x264 [info]: consecutive B-frames: 1.5% 1.3% 6.5% 19.1% 17.1% 42.9% 5.3% 3.0% 1.4% 0.9% 1.0%
x264 [info]: mb I I16..4: 12.3% 63.1% 24.6%
x264 [info]: mb P I16..4: 1.2% 9.8% 1.7% P16..4: 41.1% 18.0% 15.0% 0.7% 0.3% skip:12.4%
x264 [info]: mb B I16..4: 0.1% 1.1% 0.2% B16..8: 39.8% 7.0% 1.6% direct: 3.5% skip:46.8% L0:43.7% L1:47.5% BI: 8.8%
x264 [info]: 8x8 transform intra:75.7% inter:67.8%
x264 [info]: direct mvs spatial:98.7% temporal:1.3%
x264 [info]: coded y,uvDC,uvAC intra: 81.6% 87.1% 65.4% inter: 17.5% 19.8% 3.7%
x264 [info]: i16 v,h,dc,p: 33% 13% 12% 43%
x264 [info]: i8 v,h,dc,ddl,ddr,vr,hd,vl,hu: 20% 13% 23% 5% 8% 8% 8% 8% 8%
x264 [info]: i4 v,h,dc,ddl,ddr,vr,hd,vl,hu: 32% 14% 11% 6% 9% 8% 8% 7% 6%
x264 [info]: i8c dc,h,v,p: 51% 18% 21% 9%
x264 [info]: Weighted P-Frames: Y:1.4% UV:0.8%
x264 [info]: ref P L0: 45.8% 11.7% 18.7% 6.0% 5.8% 3.7% 3.8% 1.9% 2.3% 0.2% 0.0%
x264 [info]: ref B L0: 76.8% 10.9% 5.1% 2.6% 1.8% 1.6% 0.9% 0.3%
x264 [info]: ref B L1: 93.4% 6.6%
x264 [info]: kb/s:2428.64
encoded 258758 frames, 2.86 fps, 2428.63 kb/s
GeneralComplete name : E:\Volk_s_uoll_strit.2013_KinoGadget.mp4Format : MPEG-4Format profile : Base MediaCodec ID : isomFile size : 3.22 GiBDuration : 2h 59mnOverall bit rate mode : VariableOverall bit rate : 2 564 KbpsMovie name : Волк с Уолл-стритPerformer : Мартин СкорсезеGenre : Comedy, CrimeContentType : Short FilmRecorded date : 2013Encoded date : UTC 2016-02-10 15:02:28Tagged date : UTC 2016-02-10 15:16:28Cover : YesContentRating : mpaa|R|400|

LongDescription : 1987 год. Джордан Белфорт становится брокером в успешном инвестиционном банке. Вскоре банк закрывается после внезапного обвала индекса Доу-Джонса. По совету жены Терезы Джордан устраивается в небольшое заведение, занимающееся мелкими акциями. Его настойчивый стиль общения с клиентами и врождённая харизма быстро даёт свои плоды. Он знакомится с соседом по дому Донни, торговцем, который сразу находит общий язык с Джорданом и решает открыть с ним собственную фирму. В качестве сотрудников они нанимают нескольких друзей Белфорта, его отца Макса и называют компанию «Стрэттон Оукмонт».HDVideo : Yes

VideoID : 1Format : AVCFormat/Info : Advanced Video CodecFormat profile : [email protected] settings, CABAC : YesFormat settings, ReFrames : 9 framesCodec ID : avc1Codec ID/Info : Advanced Video CodingDuration : 2h 59mnBit rate : 2 429 KbpsMaximum bit rate : 10.0 MbpsWidth : 1 280 pixelsHeight : 532 pixelsDisplay aspect ratio : 2.40:1Frame rate mode : ConstantFrame rate : 23.976 fpsColor space : YUVChroma subsampling : 4:2:0Bit depth : 8 bitsScan type : ProgressiveBits/(Pixel*Frame) : 0.149Stream size : 3.05 GiB (95%)Writing library : x264 core 148 r2638 7599210Encoding settings : cabac=1 / ref=9 / deblock=1:-1:-1 / analyse=0x3:0x133 / me=umh / subme=7 / psy=1 / psy_rd=1.00:0.15 / mixed_ref=1 / me_range=24 / chroma_me=1 / trellis=2 / 8x8dct=1 / cqm=0 / deadzone=21,11 / fast_pskip=1 / chroma_qp_offset=-3 / threads=3 / lookahead_threads=1 / sliced_threads=0 / nr=0 / decimate=1 / interlaced=0 / bluray_compat=0 / constrained_intra=0 / bframes=10 / b_pyramid=2 / b_adapt=2 / b_bias=0 / direct=3 / weightb=1 / open_gop=0 / weightp=2 / keyint=240 / keyint_min=23 / scenecut=40 / intra_refresh=0 / rc_lookahead=60 / rc=crf / mbtree=1 / crf=19.0 / qcomp=0.60 / qpmin=0 / qpmax=69 / qpstep=4 / ip_ratio=1.40 / aq=1:1.00Language : EnglishEncoded date : UTC 2016-02-10 14:39:07Tagged date : UTC 2016-02-10 15:04:52

AudioID : 2Format : AACFormat/Info : Advanced Audio CodecFormat profile : LCCodec ID : 40Duration : 2h 59mnBit rate mode : VariableBit rate : 128 KbpsMaximum bit rate : 134 KbpsChannel count : 2 channelsChannel positions : Front: L RSampling rate : 48.0 KHzCompression mode : LossyStream size : 165 MiB (5%)Language : RussianEncoded date : UTC 2016-02-10 14:42:22Tagged date : UTC 2016-02-10 15:04:52
[url=...39840292] [/url]

Трекер:  [ 10-Фев-2016 18:00 ]

  

Скачать .torrent

Размер .torrent файла 16 KB


Размер: 3.22 GB
Хэш (hash) релиза: 8afbcd8c3017a88894f266b34faf722bc54f5e65

Еще никто не оставлял запись к записи скачать торрент [VIDEO] Волк с Уолл-стрит The Wolf of Wall Street . Будь первым!

!Обратная связь