Мультипликация | Srdjan Todorovic | Bob, der Flaschengeist

Скачать через торрент [VIDEO] Прогулка The Walk бесплатно русская версия torrent активатор

Статистика раздачи
Размер:  1.74 GB   |    Зарегистрирован:  2 года 5 месяцев   |    .torrent скачан:  29 раз   |   
Раздают:  1  
   
загрузка...
 
Автор Сообщение

Galfimbul

avatar Galfimbul


Прогулка / The Walk«Every dream begins with a single step»
Год выпуска: 2015
Оригинальное название: The Walk
Страна: США
Жанр: триллер, драма, приключения, биография
Возраст: 12+

Режиссер: Роберт Земекис

В ролях: Джозеф Гордон-Левитт, Бен Кингсли, Стив Валентайн, Шарлотта Ле Бон, Джеймс Бэдж Дэйл, Бен Шварц, Бенедикт Сэмюэл, Мизинга Мвинга, Дэниэл Аррош, Джейсон Делайн, Серджо Ди Зио, Даррел Ли-Изард, Кент МакКвейд, Гийом Байяржон, Эмили Леклерк, Марк Траффорд, Инка Малович, Лукас Рамасьер, Мартин Лефевр, Филипп Бертран

Описание: Вы боитесь высоты? А можете представить себя идущим по натянутому канату на высоте более 400м без всякой страховки? Потоки ветра обдувают вас, а внизу — город и тысячи взволнованных взглядов, устремленных вверх.

История о том, как французский канатоходец Филипп Пети отважился совершить легендарный трюк — пройти без страховки по канату, натянутому между небоскребами в Нью-Йорке.

Продолжительность: 02:03:11
Перевод: Дублированный [Лицензия]
Оригинальная дорожка: нет

Автор рипа:

Качество видео: BDRip Исходник: Blu-Ray Remux (1080p) Формат: mp4
Видео кодек: MPEG-4 AVC Аудио кодек: AAC
Видео: 1280x536 at 23.976 fps, AVC at 1 889 kbps avg, 0.115 bit/pixel
Аудио №1 Rus: 48.0 KHz, AAC, 2 ch, 128.0 Kbps
Субтитры: русские (Forced)
Навигация по главам: есть
avs [info]: 1280x536p 1:1 @ 24000/1001 fps (cfr)
x264 [info]: using SAR=1/1
x264 [info]: using cpu capabilities: MMX2 SSE2Fast SSSE3 Cache64
x264 [info]: profile High, level 4.1
x264 [info]: frame I:1094 Avg QP:15.14 size:109410
x264 [info]: frame P:35511 Avg QP:18.32 size: 27122
x264 [info]: frame B:140610 Avg QP:21.49 size: 4711
x264 [info]: consecutive B-frames: 1.2% 1.5% 5.1% 22.4% 17.5% 33.6% 6.7% 6.7% 4.0% 0.8% 0.6%
x264 [info]: mb I I16..4: 7.4% 67.2% 25.4%
x264 [info]: mb P I16..4: 0.9% 5.9% 1.0% P16..4: 43.1% 18.0% 17.8% 1.0% 0.5% skip:11.7%
x264 [info]: mb B I16..4: 0.0% 0.3% 0.1% B16..8: 40.0% 5.3% 1.2% direct: 2.4% skip:50.6% L0:41.8% L1:49.3% BI: 8.8%
x264 [info]: 8x8 transform intra:73.3% inter:62.7%
x264 [info]: direct mvs spatial:100.0% temporal:0.0%
x264 [info]: coded y,uvDC,uvAC intra: 80.4% 81.3% 59.6% inter: 13.6% 17.3% 4.0%
x264 [info]: i16 v,h,dc,p: 29% 21% 13% 37%
x264 [info]: i8 v,h,dc,ddl,ddr,vr,hd,vl,hu: 21% 16% 19% 5% 8% 8% 8% 7% 8%
x264 [info]: i4 v,h,dc,ddl,ddr,vr,hd,vl,hu: 25% 17% 13% 6% 9% 9% 8% 7% 6%
x264 [info]: i8c dc,h,v,p: 54% 18% 20% 7%
x264 [info]: Weighted P-Frames: Y:3.8% UV:1.7%
x264 [info]: ref P L0: 51.5% 13.7% 16.9% 5.8% 4.9% 3.6% 3.5% 0.2% 0.0%
x264 [info]: ref B L0: 82.0% 9.8% 4.6% 2.0% 1.0% 0.5%
x264 [info]: ref B L1: 93.4% 6.6%
x264 [info]: kb/s:1888.94
encoded 177215 frames, 3.31 fps, 1888.94 kb/s
GeneralComplete name : E:\Progulka.2015_KinoGadget.mp4Format : MPEG-4Format profile : Base MediaCodec ID : isomFile size : 1.74 GiBDuration : 2h 3mnOverall bit rate mode : VariableOverall bit rate : 2 025 KbpsMovie name : Прогулка | KinoGadgetPerformer : Роберт ЗемекисGenre : Adventure, DramaContentType : Short FilmRecorded date : 2015Encoded date : UTC 2016-02-09 15:12:38Tagged date : UTC 2016-02-09 15:42:37Cover : YesContentRating : mpaa|PG|200|

LongDescription : Вы боитесь высоты? А можете представить себя идущим по натянутому канату на высоте более 400м без всякой страховки? Потоки ветра обдувают вас, а внизу — город и тысячи взволнованных взглядов, устремленных вверх. / / История о том, как французский канатоходец Филипп Пети отважился совершить легендарный трюк — пройти без страховки по канату, натянутому между небоскребами в Нью-Йорке.HDVideo : Yes

VideoID : 1Format : AVCFormat/Info : Advanced Video CodecFormat profile : [email protected] settings, CABAC : YesFormat settings, ReFrames : 7 framesCodec ID : avc1Codec ID/Info : Advanced Video CodingDuration : 2h 3mnBit rate : 1 889 KbpsMaximum bit rate : 12.1 MbpsWidth : 1 280 pixelsHeight : 536 pixelsDisplay aspect ratio : 2.40:1Frame rate mode : ConstantFrame rate : 23.976 fpsColor space : YUVChroma subsampling : 4:2:0Bit depth : 8 bitsScan type : ProgressiveBits/(Pixel*Frame) : 0.115Stream size : 1.63 GiB (93%)Writing library : x264 core 148 r2638 7599210Encoding settings : cabac=1 / ref=7 / deblock=1:-1:-1 / analyse=0x3:0x133 / me=umh / subme=7 / psy=1 / psy_rd=1.00:0.15 / mixed_ref=1 / me_range=24 / chroma_me=1 / trellis=2 / 8x8dct=1 / cqm=0 / deadzone=21,11 / fast_pskip=1 / chroma_qp_offset=-3 / threads=3 / lookahead_threads=1 / sliced_threads=0 / nr=0 / decimate=1 / interlaced=0 / bluray_compat=0 / constrained_intra=0 / bframes=10 / b_pyramid=2 / b_adapt=2 / b_bias=0 / direct=3 / weightb=1 / open_gop=0 / weightp=2 / keyint=240 / keyint_min=23 / scenecut=40 / intra_refresh=0 / rc_lookahead=60 / rc=crf / mbtree=1 / crf=19.0 / qcomp=0.60 / qpmin=0 / qpmax=69 / qpstep=4 / ip_ratio=1.40 / aq=1:1.00Language : EnglishEncoded date : UTC 2016-02-08 14:59:33Tagged date : UTC 2016-02-09 15:14:09

AudioID : 2Format : AACFormat/Info : Advanced Audio CodecFormat profile : LCCodec ID : 40Duration : 2h 3mnBit rate mode : VariableBit rate : 128 KbpsMaximum bit rate : 135 KbpsChannel count : 2 channelsChannel positions : Front: L RSampling rate : 48.0 KHzCompression mode : LossyStream size : 113 MiB (6%)Language : RussianEncoded date : UTC 2016-02-08 14:39:06Tagged date : UTC 2016-02-09 15:14:09

TextID : 3Format : Timed TextCodec ID : tx3gDuration : 1h 57mnBit rate mode : VariableBit rate : 7 bpsStream size : 5.76 KiB (0%)Language : RussianEncoded date : UTC 2016-02-09 15:14:09Tagged date : UTC 2016-02-09 15:14:09

Menu00:00:00.000 : Chapter 100:05:15.773 : Chapter 200:10:06.147 : Chapter 300:14:51.807 : Chapter 400:23:30.867 : Chapter 500:32:22.148 : Chapter 600:41:46.879 : Chapter 700:46:32.414 : Chapter 800:55:38.460 : Chapter 901:04:37.373 : Chapter 1001:11:17.314 : Chapter 1101:17:40.405 : Chapter 1201:24:37.072 : Chapter 1301:33:46.746 : Chapter 1401:42:21.927 : Chapter 1501:50:29.539 : Chapter 16
[url=...39840292] [/url]

Трекер:  [ 10-Фев-2016 02:00 ]

  

Скачать .torrent

Размер .torrent файла 18 KB


Размер: 1.74 GB
Хэш (hash) релиза: efeef0249cdc4f879c68241740d8392bc6970d7e

Торренты, похожие на [VIDEO] Прогулка The Walk скачать торрент

Форум Название Автор Размер S L Добавлен
Видео (Фильмы/Клипы) ·· [VIDEO] Прогулка среди могил / A Walk Among the Tombstones (Скотт Фрэнк / Scott Frank) [2014, США, боевик, триллер, криминал, детектив, HDRip][MP4, 480x] DVO Galfimbul 549576840524 MB 0 0 1434464405

17:20

16-Июн-15

Еще никто не оставлял запись к записи скачать торрент [VIDEO] Прогулка The Walk . Будь первым!

!Обратная связь