English Den of Thieves 2018 HDrip AC3 X264-CMRG | Der Nebel | La famiglia Aubrey

Скачать через торрент [VIDEO] Он – дракон бесплатно русская версия torrent активатор

Статистика раздачи
Размер:  1.41 GB   |    Зарегистрирован:  2 года 5 месяцев   |    .torrent скачан:  43 раза   |   
Раздают:  1  
   
загрузка...
 
Автор Сообщение

Galfimbul

avatar Galfimbul


Он – дракон«Любить страшно»
Год выпуска: 2015
Страна: Россия
Жанр: фэнтези
Возраст: 12+

Режиссер: Индар Джендубаев

В ролях: Матвей Лыков, Мария Поезжаева, Станислав Любшин, Ёла Санько, Пётр Романов, Иева Андреевайте, Александр Лучинин, Алёна Чехова, Виктория Рунцова, Анастасия Дубровина, Любовь Фирсова, Егор Зубарчук, Юрий Горин, Марта Тимофеева, Дарья Дубникова, Андрей Лебединский, Виктор Королёв (II)

Описание: В разгар свадьбы княжну Мирославу похищает дракон, унося в свой замок на острове. В прошлом остались родные, жених, теперь только каменный плен в компании прекрасного Армана… но кто он и как оказался на острове? Мира поймет это слишком поздно: любовь к нему, человеку-дракону, откроет ей горькую истину — любить страшно.

Продолжительность: 01:47:04
Перевод: Оригинал (русский) [Лицензия]
Оригинальная дорожка: нет

Автор рипа:

Качество видео: BDRip Исходник: Blu-Ray (1080p) Формат: mp4
Видео кодек: MPEG-4 AVC Аудио кодек: AAC
Видео: 1280x544 at 24.000 fps, AVC at 1 755 kbps avg, 0.105 bit/pixel
Аудио №1 Rus: 48.0 KHz, AAC, 2 ch, 128.0 Kbps
Субтитры: нет
Навигация по главам: нет
avs [info]: 1280x532p 1:1 @ 24000/1001 fps (cfr)
x264 [info]: using SAR=1/1
x264 [info]: using cpu capabilities: MMX2 SSE2Fast SSSE3 Cache64
x264 [info]: profile High, level 4.1
x264 [info]: frame I:1325 Avg QP:14.38 size: 72138
x264 [info]: frame P:34640 Avg QP:17.86 size: 18776
x264 [info]: frame B:118224 Avg QP:19.47 size: 5609
x264 [info]: consecutive B-frames: 2.6% 2.7% 10.3% 20.2% 15.6% 39.5% 4.5% 1.8% 2.9%
x264 [info]: mb I I16..4: 12.3% 70.2% 17.5%
x264 [info]: mb P I16..4: 5.2% 17.6% 1.0% P16..4: 39.0% 11.4% 9.2% 0.4% 0.2% skip:16.0%
x264 [info]: mb B I16..4: 0.6% 1.2% 0.1% B16..8: 34.0% 5.3% 1.0% direct: 5.3% skip:52.4% L0:44.3% L1:47.7% BI: 7.9%
x264 [info]: 8x8 transform intra:71.6% inter:71.2%
x264 [info]: direct mvs spatial:98.3% temporal:1.7%
x264 [info]: coded y,uvDC,uvAC intra: 48.0% 65.3% 35.2% inter: 11.8% 18.4% 2.6%
x264 [info]: i16 v,h,dc,p: 39% 19% 7% 35%
x264 [info]: i8 v,h,dc,ddl,ddr,vr,hd,vl,hu: 18% 16% 29% 5% 7% 7% 7% 6% 6%
x264 [info]: i4 v,h,dc,ddl,ddr,vr,hd,vl,hu: 21% 17% 15% 6% 11% 9% 9% 6% 6%
x264 [info]: i8c dc,h,v,p: 58% 18% 17% 7%
x264 [info]: Weighted P-Frames: Y:8.1% UV:5.9%
x264 [info]: ref P L0: 54.7% 9.6% 15.4% 6.6% 4.4% 3.8% 2.9% 2.1% 0.4% 0.0%
x264 [info]: ref B L0: 81.0% 9.3% 4.5% 2.1% 1.6% 0.9% 0.5%
x264 [info]: ref B L1: 94.1% 5.9%
x264 [info]: kb/s:1754.59
encoded 154189 frames, 3.26 fps, 1754.59 kb/s
GeneralComplete name : E:\On_drakon.2015_KinoGadget.mp4Format : MPEG-4Format profile : Base MediaCodec ID : isomFile size : 1.41 GiBDuration : 1h 47mnOverall bit rate mode : VariableOverall bit rate : 1 890 KbpsMovie name : Он – дракон | KinoGadgetPerformer : Индар ДжендубаевGenre : Adventure, RomanceContentType : Short FilmRecorded date : 2015Encoded date : UTC 2016-02-07 06:38:40Tagged date : UTC 2016-02-07 06:47:07Cover : Yes

LongDescription : В разгар свадьбы княжну Мирославу похищает дракон, унося в свой замок на острове. В прошлом остались родные, жених, теперь только каменный плен в компании прекрасного Армана… но кто он и как оказался на острове? Мира поймет это слишком поздно: любовь к нему, человеку-дракону, откроет ей горькую истину — любить страшно.HDVideo : Yes

VideoID : 1Format : AVCFormat/Info : Advanced Video CodecFormat profile : [email protected] settings, CABAC : YesFormat settings, ReFrames : 8 framesCodec ID : avc1Codec ID/Info : Advanced Video CodingDuration : 1h 47mnBit rate : 1 755 KbpsMaximum bit rate : 19.8 MbpsWidth : 1 280 pixelsHeight : 544 pixelsDisplay aspect ratio : 2.35:1Frame rate mode : ConstantFrame rate : 24.000 fpsColor space : YUVChroma subsampling : 4:2:0Bit depth : 8 bitsScan type : ProgressiveBits/(Pixel*Frame) : 0.105Stream size : 1.31 GiB (93%)Writing library : x264 core 148 r2638 7599210Encoding settings : cabac=1 / ref=8 / deblock=1:-1:-1 / analyse=0x3:0x133 / me=umh / subme=7 / psy=1 / psy_rd=1.00:0.15 / mixed_ref=1 / me_range=24 / chroma_me=1 / trellis=2 / 8x8dct=1 / cqm=0 / deadzone=21,11 / fast_pskip=1 / chroma_qp_offset=-3 / threads=3 / lookahead_threads=1 / sliced_threads=0 / nr=0 / decimate=1 / interlaced=0 / bluray_compat=0 / constrained_intra=0 / bframes=8 / b_pyramid=2 / b_adapt=2 / b_bias=0 / direct=3 / weightb=1 / open_gop=0 / weightp=2 / keyint=240 / keyint_min=24 / scenecut=40 / intra_refresh=0 / rc_lookahead=60 / rc=crf / mbtree=1 / crf=19.5 / qcomp=0.60 / qpmin=0 / qpmax=69 / qpstep=4 / ip_ratio=1.40 / aq=1:1.00Language : EnglishEncoded date : UTC 2016-02-07 06:34:26Tagged date : UTC 2016-02-07 06:39:48

AudioID : 2Format : AACFormat/Info : Advanced Audio CodecFormat profile : LCCodec ID : 40Duration : 1h 47mnBit rate mode : VariableBit rate : 128 KbpsMaximum bit rate : 135 KbpsChannel count : 2 channelsChannel positions : Front: L RSampling rate : 48.0 KHzCompression mode : LossyStream size : 98.0 MiB (7%)Language : RussianEncoded date : UTC 2016-02-07 06:24:15Tagged date : UTC 2016-02-07 06:39:48
[url=...39840292] [/url]

Трекер:  [ 07-Фев-2016 09:30 ]

  

Скачать .torrent

Размер .torrent файла 14 KB


Размер: 1.41 GB
Хэш (hash) релиза: 51d89b9f1da986d8a05732925af9270312df7931

Еще никто не оставлял запись к записи скачать торрент [VIDEO] Он – дракон . Будь первым!

!Обратная связь