Gwiezdne Wojny: Wojny Klonó... | Más detalles | Der Doktor und das liebe Vieh

Скачать через торрент [VIDEO] Последний охотник на ведьм The Last Witch Hunter бесплатно русская версия torrent активатор

Статистика раздачи
Размер:  1.82 GB   |    Зарегистрирован:  2 года 6 месяцев   |    .torrent скачан:  557 раз   |   
Раздают:  1  
   
загрузка...
 
Автор Сообщение

Galfimbul

avatar Galfimbul


Последний охотник на ведьм / The Last Witch Hunter«Вечно жить. Вечно убивать»
Год выпуска: 2015
Оригинальное название: The Last Witch Hunter
Страна: США, Китай, Канада
Жанр: фэнтези, боевик, приключения
Возраст: 16+

Режиссер: Брек Эйснер

В ролях: Вин Дизель, Роуз Лесли, Элайджа Вуд, Оулавюр Дарри Оулафссон, Рина Оуэн, Юли Энгельбрехт, Майкл Кейн, Джозеф Гилган, Исаак Де Банколе, Майкл Халсли, Слоун Кумбс, Лотте Вербеек, Доун Оливери, Инбар Лави, Армани Джексон, Эйми Карреро, Бекс Тейлор-Клаус, Дэвид Уэйлен, Джэк Эрди, Туссэн Рафаэль Абессоло

Описание: Современный мир скрывает множество секретов, но самым удивительным из них является то, что ведьмы до сих пор живут среди нас. Это злобные сверхъестественные существа, чья цель — наслать на мир смертоносную чуму. Армии охотников на ведьм сражались с ними на протяжении многих веков.

В наши дни остался всего лишь один охотник на ведьм, Колдер, которому однажды удалось убить всемогущую королеву ведьм. Но Колдер еще не знает, что королева воскресла и жаждет отомстить своему убийце…

Продолжительность: 01:46:34
Перевод: Дублированный [Лицензия]
Оригинальная дорожка: нет

Автор рипа:

Качество видео: BDRip Исходник: Blu-Ray Remux (1080p) Формат: mp4
Видео кодек: MPEG-4 AVC Аудио кодек: AAC
Видео: 1280x532 at 23.976 fps, AVC at 2 303 kbps avg, 0.141 bit/pixel
Аудио №1 Rus: 48.0 KHz, AAC, 2 ch, 128.0 Kbps
Субтитры: нет
Навигация по главам: нет
avs [info]: 1280x532p 1:1 @ 24000/1001 fps (cfr)
x264 [info]: using SAR=1/1
x264 [info]: using cpu capabilities: MMX2 SSE2Fast SSSE3 Cache64
x264 [info]: profile High, level 4.1
x264 [info]: frame I:1289 Avg QP:16.05 size:105538
x264 [info]: frame P:32775 Avg QP:19.79 size: 25314
x264 [info]: frame B:119247 Avg QP:22.20 size: 7341
x264 [info]: consecutive B-frames: 2.4% 2.8% 5.9% 15.1% 21.9% 41.3% 6.4% 1.7% 2.3%
x264 [info]: mb I I16..4: 11.9% 67.9% 20.1%
x264 [info]: mb P I16..4: 2.1% 12.1% 1.4% P16..4: 41.7% 13.6% 12.5% 0.4% 0.2% skip:15.9%
x264 [info]: mb B I16..4: 0.1% 1.4% 0.2% B16..8: 39.5% 5.5% 1.1% direct: 4.5% skip:47.7% L0:46.2% L1:48.0% BI: 5.8%
x264 [info]: 8x8 transform intra:76.0% inter:71.1%
x264 [info]: direct mvs spatial:99.8% temporal:0.2%
x264 [info]: coded y,uvDC,uvAC intra: 73.0% 85.7% 63.7% inter: 16.6% 25.4% 4.1%
x264 [info]: i16 v,h,dc,p: 40% 17% 10% 34%
x264 [info]: i8 v,h,dc,ddl,ddr,vr,hd,vl,hu: 18% 11% 27% 5% 8% 8% 7% 8% 7%
x264 [info]: i4 v,h,dc,ddl,ddr,vr,hd,vl,hu: 32% 12% 13% 6% 9% 9% 7% 7% 6%
x264 [info]: i8c dc,h,v,p: 54% 17% 19% 10%
x264 [info]: Weighted P-Frames: Y:7.5% UV:5.2%
x264 [info]: ref P L0: 47.4% 11.1% 17.6% 6.6% 5.4% 4.0% 3.4% 2.1% 2.0% 0.4% 0.0%
x264 [info]: ref B L0: 74.6% 11.4% 6.0% 2.7% 2.3% 1.7% 1.0% 0.3%
x264 [info]: ref B L1: 92.3% 7.7%
x264 [info]: kb/s:2303.45
encoded 153311 frames, 3.29 fps, 2303.45 kb/s
GeneralComplete name : E:\Poslednij_oxotnik_na_vedm.2015_KinoGadget.mp4Format : MPEG-4Format profile : Base MediaCodec ID : isomFile size : 1.82 GiBDuration : 1h 46mnOverall bit rate mode : VariableOverall bit rate : 2 439 KbpsMovie name : Последний охотник на ведьм | KinoGadgetPerformer : Брек ЭйснерGenre : Action, AdventureContentType : Short FilmRecorded date : 2015Encoded date : UTC 2016-02-06 08:47:07Tagged date : UTC 2016-02-06 09:15:37Cover : YesContentRating : mpaa|PG-13|300|

LongDescription : Современный мир скрывает множество секретов, но самым удивительным из них является то, что ведьмы до сих пор живут среди нас. Это злобные сверхъестественные существа, чья цель — наслать на мир смертоносную чуму. Армии охотников на ведьм сражались с ними на протяжении многих веков. / / В наши дни остался всего лишь один охотник на ведьм, Колдер, которому однажды удалось убить всемогущую королеву ведьм. Но Колдер еще не знает, что королева воскресла и жаждет отомстить своему убийце…HDVideo : Yes

VideoID : 1Format : AVCFormat/Info : Advanced Video CodecFormat profile : [email protected] settings, CABAC : YesFormat settings, ReFrames : 9 framesCodec ID : avc1Codec ID/Info : Advanced Video CodingDuration : 1h 46mnBit rate : 2 303 KbpsMaximum bit rate : 18.7 MbpsWidth : 1 280 pixelsHeight : 532 pixelsDisplay aspect ratio : 2.40:1Frame rate mode : ConstantFrame rate : 23.976 fpsColor space : YUVChroma subsampling : 4:2:0Bit depth : 8 bitsScan type : ProgressiveBits/(Pixel*Frame) : 0.141Stream size : 1.71 GiB (94%)Writing library : x264 core 148 r2638 7599210Encoding settings : cabac=1 / ref=9 / deblock=1:-1:-1 / analyse=0x3:0x133 / me=umh / subme=7 / psy=1 / psy_rd=1.00:0.15 / mixed_ref=1 / me_range=24 / chroma_me=1 / trellis=2 / 8x8dct=1 / cqm=0 / deadzone=21,11 / fast_pskip=1 / chroma_qp_offset=-3 / threads=3 / lookahead_threads=1 / sliced_threads=0 / nr=0 / decimate=1 / interlaced=0 / bluray_compat=0 / constrained_intra=0 / bframes=8 / b_pyramid=2 / b_adapt=2 / b_bias=0 / direct=3 / weightb=1 / open_gop=0 / weightp=2 / keyint=240 / keyint_min=23 / scenecut=40 / intra_refresh=0 / rc_lookahead=60 / rc=crf / mbtree=1 / crf=20.0 / qcomp=0.60 / qpmin=0 / qpmax=69 / qpstep=4 / ip_ratio=1.40 / aq=1:1.00Language : EnglishEncoded date : UTC 2016-02-06 08:38:56Tagged date : UTC 2016-02-06 08:48:24

AudioID : 2Format : AACFormat/Info : Advanced Audio CodecFormat profile : LCCodec ID : 40Duration : 1h 46mnBit rate mode : VariableBit rate : 128 KbpsMaximum bit rate : 135 KbpsChannel count : 2 channelsChannel positions : Front: L RSampling rate : 48.0 KHzCompression mode : LossyStream size : 97.6 MiB (5%)Language : RussianEncoded date : UTC 2016-02-06 08:37:58Tagged date : UTC 2016-02-06 08:48:24
[url=...39840292] [/url]

Трекер:  [ 06-Фев-2016 14:00 ]

  

Скачать .torrent

Размер .torrent файла 18 KB


Размер: 1.82 GB
Хэш (hash) релиза: 6e099f548b90cf917949bf87efb5eb6da8606142

Торренты, похожие на [VIDEO] Последний охотник на ведьм The Last Witch Hunter скачать торрент

Форум Название Автор Размер S L Добавлен
Видео (Фильмы/Клипы) ·· [VIDEO] Последний охотник на ведьм / The Last Witch Hunter (Брек Эйснер / Breck Eisner) [2015, США, фэнтези, боевик, приключения, HDRip][MP4, 480x] Dub Galfimbul 513794681490 MB 0 0 1456744347

14:12

29-Фев-16

Еще никто не оставлял запись к записи скачать торрент [VIDEO] Последний охотник на ведьм The Last Witch Hunter . Будь первым!

!Обратная связь