Discover | Chapter 594 : Really won't compromise | Real Cricket™ 18 APK

Скачать через торрент [VIDEO] Страна чудес бесплатно русская версия torrent активатор

Статистика раздачи
Размер:  1.53 GB   |    Зарегистрирован:  2 года 5 месяцев   |    .torrent скачан:  38 раз   |   
Раздают:  1  
   
загрузка...
 
Автор Сообщение

Galfimbul

avatar Galfimbul


Страна чудес«Мы такие одни во Вселенной»
Год выпуска: 2016
Страна: Россия
Жанр: комедия
Возраст: 12+

Режиссер: Дмитрий Дьяченко, Максим Свешников

В ролях: Елена Яковлева, Фёдор Добронравов, Александр Паль, Олеся Железняк, Сергей Лавыгин, Грант Тохатян, Ольга Лерман, Тимофей Трибунцев, Иван Добронравов, Анна Назарова, Евгения Розанова, Светлана Смирнова-Марцинкевич, Софья Урицкая, Леонид Барац, Ростислав Хаит, Камиль Ларин, Александр Демидов, Никита Манец, Наталья Щукина

Описание: Герои фильма — жители самых разных уголков нашей страны, самые обычные люди, с которыми случаются самые необычные вещи, просто чудеса какие-то.

Семье пожарных Семёну и Любе из Костромы выпадает шанс осуществить заветную мечту: поехать в Москву на любимую программу «Поле Чудес», где им предстоит сделать выбор всей жизни «приз или деньги?». Неопытный ППСник, но опытный неудачник Саня должен не только пережить свой первый день в патруле, но ещё принять роды у своей жены и реанимировать своего напарника. Четвёрка новоиспечённых приятелей должна во что бы то ни стало в нелётную погоду улететь в Москву, а пара юных влюблённых каким-то непостижимым способом — примирить своих непримиримых родителей. А Валере вообще предстоит решить дилемму: спасать человечество от всемирного потопа или просто улететь с дружками по караоке — пришельцами, на их cтареньком НЛО?

Всё это может случиться только раз в году, 31 декабря! И только у нас! Всё-таки… Мы такие одни во вселенной.

Продолжительность: 01:23:11
Перевод: Оригинал (русский)
Оригинальная дорожка: нет

Автор рипа:

Качество видео: BDRip Исходник: Blu-Ray Remux (1080p) Формат: mp4
Видео кодек: MPEG-4 AVC Аудио кодек: AAC
Видео: 1280x536 at 24.000 fps, AVC at 2 499 kbps avg, 0.152 bit/pixel
Аудио №1 Rus: 48.0 KHz, AAC, 2 ch, 128.0 Kbps
Субтитры: нет
Навигация по главам: нет
avs [info]: 1280x536p 1:1 @ 24/1 fps (cfr)
x264 [info]: using SAR=1/1
x264 [info]: using cpu capabilities: MMX2 SSE2Fast SSSE3 Cache64
x264 [info]: profile High, level 4.1
x264 [info]: frame I:1472 Avg QP:18.59 size: 94228
x264 [info]: frame P:25642 Avg QP:21.92 size: 27359
x264 [info]: frame B:92673 Avg QP:24.10 size: 7760
x264 [info]: consecutive B-frames: 1.9% 1.8% 5.8% 27.3% 21.8% 33.1% 8.3%
x264 [info]: mb I I16..4: 7.0% 73.9% 19.1%
x264 [info]: mb P I16..4: 2.0% 11.3% 1.3% P16..4: 45.9% 15.1% 12.4% 0.4% 0.2% skip:11.4%
x264 [info]: mb B I16..4: 0.2% 1.1% 0.2% B16..8: 37.9% 6.2% 1.3% direct: 6.1% skip:47.1% L0:42.8% L1:48.2% BI: 9.1%
x264 [info]: 8x8 transform intra:76.6% inter:74.0%
x264 [info]: direct mvs spatial:99.3% temporal:0.7%
x264 [info]: coded y,uvDC,uvAC intra: 74.2% 89.2% 67.1% inter: 18.1% 32.9% 8.8%
x264 [info]: i16 v,h,dc,p: 27% 19% 6% 48%
x264 [info]: i8 v,h,dc,ddl,ddr,vr,hd,vl,hu: 21% 15% 18% 5% 8% 9% 8% 8% 8%
x264 [info]: i4 v,h,dc,ddl,ddr,vr,hd,vl,hu: 24% 15% 11% 6% 10% 10% 9% 8% 6%
x264 [info]: i8c dc,h,v,p: 43% 18% 21% 17%
x264 [info]: Weighted P-Frames: Y:4.4% UV:3.2%
x264 [info]: ref P L0: 46.4% 13.6% 18.2% 5.7% 5.4% 3.4% 3.4% 1.7% 2.0% 0.2% 0.0%
x264 [info]: ref B L0: 79.0% 10.0% 4.4% 2.4% 1.7% 1.5% 0.7% 0.3%
x264 [info]: ref B L1: 94.2% 5.8%
x264 [info]: kb/s:2499.39
encoded 119787 frames, 3.57 fps, 2499.39 kb/s
GeneralComplete name : E:\Strana_chudes.2015_KinoGadget.mp4Format : MPEG-4Format profile : Base MediaCodec ID : isomFile size : 1.53 GiBDuration : 1h 23mnOverall bit rate mode : VariableOverall bit rate : 2 635 KbpsMovie name : Страна чудес | KinoGadgetPerformer : Дмитрий Дьяченко, Максим СвешниковGenre : ComedyContentType : Short FilmRecorded date : 2016Encoded date : UTC 2016-02-05 14:50:30Tagged date : UTC 2016-02-05 15:16:30Cover : YesContentRating : mpaa|PG-13|300|

LongDescription : Герои фильма — жители самых разных уголков нашей страны, самые обычные люди, с которыми случаются самые необычные вещи, просто чудеса какие-то.HDVideo : Yes

VideoID : 1Format : AVCFormat/Info : Advanced Video CodecFormat profile : [email protected] settings, CABAC : YesFormat settings, ReFrames : 9 framesCodec ID : avc1Codec ID/Info : Advanced Video CodingDuration : 1h 23mnBit rate : 2 499 KbpsMaximum bit rate : 13.5 MbpsWidth : 1 280 pixelsHeight : 536 pixelsDisplay aspect ratio : 2.40:1Frame rate mode : ConstantFrame rate : 24.000 fpsColor space : YUVChroma subsampling : 4:2:0Bit depth : 8 bitsScan type : ProgressiveBits/(Pixel*Frame) : 0.152Stream size : 1.45 GiB (95%)Writing library : x264 core 148 r2638 7599210Encoding settings : cabac=1 / ref=9 / deblock=1:-1:-1 / analyse=0x3:0x133 / me=umh / subme=7 / psy=1 / psy_rd=1.00:0.15 / mixed_ref=1 / me_range=24 / chroma_me=1 / trellis=2 / 8x8dct=1 / cqm=0 / deadzone=21,11 / fast_pskip=1 / chroma_qp_offset=-3 / threads=3 / lookahead_threads=1 / sliced_threads=0 / nr=0 / decimate=1 / interlaced=0 / bluray_compat=0 / constrained_intra=0 / bframes=6 / b_pyramid=2 / b_adapt=2 / b_bias=0 / direct=3 / weightb=1 / open_gop=0 / weightp=2 / keyint=240 / keyint_min=24 / scenecut=40 / intra_refresh=0 / rc_lookahead=60 / rc=crf / mbtree=1 / crf=21.0 / qcomp=0.60 / qpmin=0 / qpmax=69 / qpstep=4 / ip_ratio=1.40 / aq=1:1.00Language : EnglishEncoded date : UTC 2016-02-05 14:47:37Tagged date : UTC 2016-02-05 14:51:33

AudioID : 2Format : AACFormat/Info : Advanced Audio CodecFormat profile : LCCodec ID : 40Duration : 1h 23mnBit rate mode : VariableBit rate : 128 KbpsMaximum bit rate : 135 KbpsChannel count : 2 channelsChannel positions : Front: L RSampling rate : 48.0 KHzCompression mode : LossyStream size : 76.2 MiB (5%)Language : RussianEncoded date : UTC 2016-02-05 14:30:07Tagged date : UTC 2016-02-05 14:51:33
[url=...39840292] [/url]

Трекер:  [ 05-Фев-2016 18:00 ]

  

Скачать .torrent

Размер .torrent файла 15 KB


Размер: 1.53 GB
Хэш (hash) релиза: c039f8e437b75bdc9352fac185275397507830b5

Еще никто не оставлял запись к записи скачать торрент [VIDEO] Страна чудес . Будь первым!

!Обратная связь