Randall Park | Batman Ninja (2018) | GloryHole.Initiations.15.01.18.Nadia.Jay.XXX.720p.MP4-RARBG

Скачать через торрент [VIDEO] Иерусалим Jeruzalem бесплатно русская версия torrent активатор

Статистика раздачи
Размер:  1.63 GB   |    Зарегистрирован:  2 года 5 месяцев   |    .torrent скачан:  20 раз   |   
Раздают:  1  
   
загрузка...
 
Автор Сообщение

Galfimbul

avatar Galfimbul


Иерусалим / Jeruzalem«On Judgement Day, hell shall inherit the Earth»
Год выпуска: 2015
Оригинальное название: Jeruzalem
Страна: Израиль
Жанр: ужасы
Возраст: 18+

Режиссер: Дорон Пас, Йоав Пас

В ролях: Яэль Гробглас, Йон Тумаркин, Идо Ди Капуа, Джери Гендель, Том Грациани, Фарес Хананья, Стивен Хилдер, Йоав Кореш

Описание: Трое студентов во время своей поездки в Иерусалим оказываются вовлеченными в библейский апокалипсис. Оказавшись в ловушке между древними стенами святого города, они должны найти выход из обрушившегося на них ада.

Продолжительность: 01:34:10
Перевод: Любительский двухголосый
Оригинальная дорожка: нет

Автор рипа:

Качество видео: BDRip Исходник: Blu-Ray Remux (1080p) Формат: mp4
Видео кодек: MPEG-4 AVC Аудио кодек: AAC
Видео: 1280x528 at 23.976 fps, AVC at 2 342 kbps avg, 0.145 bit/pixel
Аудио №1 Rus: 48.0 KHz, AAC, 2 ch, 128.0 Kbps
Субтитры: нет
Навигация по главам: нет
avs [info]: 1280x528p 1:1 @ 24000/1001 fps (cfr)
x264 [info]: using SAR=1/1
x264 [info]: using cpu capabilities: MMX2 SSE2Fast SSSE3 Cache64
x264 [info]: profile High, level 4.1
x264 [info]: frame I:622 Avg QP:15.95 size: 55368
x264 [info]: frame P:33755 Avg QP:19.98 size: 22260
x264 [info]: frame B:101082 Avg QP:21.14 size: 8585
x264 [info]: consecutive B-frames: 3.4% 4.7% 12.9% 25.3% 16.7% 24.0% 5.7% 4.0% 3.4%
x264 [info]: mb I I16..4: 13.6% 74.6% 11.8%
x264 [info]: mb P I16..4: 3.8% 19.4% 1.4% P16..4: 40.2% 12.8% 7.9% 0.3% 0.1% skip:14.0%
x264 [info]: mb B I16..4: 0.4% 1.6% 0.1% B16..8: 39.4% 8.0% 1.3% direct: 7.8% skip:41.4% L0:44.7% L1:47.9% BI: 7.4%
x264 [info]: 8x8 transform intra:78.1% inter:81.4%
x264 [info]: direct mvs spatial:98.8% temporal:1.2%
x264 [info]: coded y,uvDC,uvAC intra: 63.3% 70.3% 30.2% inter: 23.7% 29.6% 1.5%
x264 [info]: i16 v,h,dc,p: 32% 20% 7% 42%
x264 [info]: i8 v,h,dc,ddl,ddr,vr,hd,vl,hu: 17% 14% 26% 5% 8% 8% 8% 7% 7%
x264 [info]: i4 v,h,dc,ddl,ddr,vr,hd,vl,hu: 22% 19% 13% 6% 10% 10% 8% 6% 6%
x264 [info]: i8c dc,h,v,p: 56% 18% 18% 8%
x264 [info]: Weighted P-Frames: Y:7.4% UV:4.3%
x264 [info]: ref P L0: 45.0% 12.6% 14.4% 6.3% 4.8% 3.8% 3.3% 2.1% 1.9% 1.7% 1.7% 1.7% 0.4% 0.0%
x264 [info]: ref B L0: 76.1% 9.4% 4.7% 2.5% 1.8% 1.6% 1.4% 0.9% 0.8% 0.5% 0.3%
x264 [info]: ref B L1: 94.2% 5.8%
x264 [info]: kb/s:2341.57
encoded 135459 frames, 1.97 fps, 2341.57 kb/s
GeneralComplete name : E:\Ierusalim.2015_KinoGadget.mp4Format : MPEG-4Format profile : Base MediaCodec ID : isomFile size : 1.63 GiBDuration : 1h 34mnOverall bit rate mode : VariableOverall bit rate : 2 477 KbpsMovie name : ИерусалимPerformer : Дорон Пас, Йоав ПасGenre : HorrorContentType : Short FilmRecorded date : 2015Encoded date : UTC 2016-02-05 14:55:59Tagged date : UTC 2016-02-05 15:47:54Cover : YesContentRating : mpaa|R|400|

LongDescription : Трое студентов во время своей поездки в Иерусалим оказываются вовлеченными в библейский апокалипсис. Оказавшись в ловушке между древними стенами святого города, они должны найти выход из обрушившегося на них ада.HDVideo : Yes

VideoID : 1Format : AVCFormat/Info : Advanced Video CodecFormat profile : [email protected] settings, CABAC : YesFormat settings, ReFrames : 12 framesCodec ID : avc1Codec ID/Info : Advanced Video CodingDuration : 1h 34mnBit rate : 2 342 KbpsMaximum bit rate : 11.6 MbpsWidth : 1 280 pixelsHeight : 528 pixelsDisplay aspect ratio : 2.40:1Frame rate mode : ConstantFrame rate : 23.976 fpsColor space : YUVChroma subsampling : 4:2:0Bit depth : 8 bitsScan type : ProgressiveBits/(Pixel*Frame) : 0.145Stream size : 1.54 GiB (95%)Writing library : x264 core 148 r2638 7599210Encoding settings : cabac=1 / ref=12 / deblock=1:-1:-1 / analyse=0x3:0x133 / me=umh / subme=7 / psy=1 / psy_rd=1.00:0.15 / mixed_ref=1 / me_range=24 / chroma_me=1 / trellis=2 / 8x8dct=1 / cqm=0 / deadzone=21,11 / fast_pskip=1 / chroma_qp_offset=-3 / threads=3 / lookahead_threads=1 / sliced_threads=0 / nr=0 / decimate=1 / interlaced=0 / bluray_compat=0 / constrained_intra=0 / bframes=8 / b_pyramid=2 / b_adapt=2 / b_bias=0 / direct=3 / weightb=1 / open_gop=0 / weightp=2 / keyint=240 / keyint_min=23 / scenecut=40 / intra_refresh=0 / rc_lookahead=60 / rc=crf / mbtree=1 / crf=20.0 / qcomp=0.60 / qpmin=0 / qpmax=69 / qpstep=4 / ip_ratio=1.40 / aq=1:1.00Language : EnglishEncoded date : UTC 2016-02-05 14:44:16Tagged date : UTC 2016-02-05 14:57:08

AudioID : 2Format : AACFormat/Info : Advanced Audio CodecFormat profile : LCCodec ID : 40Duration : 1h 34mnBit rate mode : VariableBit rate : 128 KbpsMaximum bit rate : 135 KbpsChannel count : 2 channelsChannel positions : Front: L RSampling rate : 48.0 KHzCompression mode : LossyStream size : 86.2 MiB (5%)Language : RussianEncoded date : UTC 2016-02-05 14:36:08Tagged date : UTC 2016-02-05 14:57:08
[url=...39840292] [/url]

Трекер:  [ 05-Фев-2016 18:00 ]

  

Скачать .torrent

Размер .torrent файла 16 KB


Размер: 1.63 GB
Хэш (hash) релиза: 0b8fd58e2c9beee16ec1bd000db4b45b4e3e29d5

Торренты, похожие на [VIDEO] Иерусалим Jeruzalem скачать торрент

Форум Название Автор Размер S L Добавлен
Видео (Фильмы/Клипы) ·· [VIDEO] Иерусалим / Jeruzalem (Дорон Пас / Doron Paz, Йоав Пас / Yoav Paz) [2015, Израиль, ужасы, HDRip][MP4, 480x] DVO Galfimbul 453592018433 MB 0 0 1455358811

13:20

13-Фев-16

Еще никто не оставлял запись к записи скачать торрент [VIDEO] Иерусалим Jeruzalem . Будь первым!

!Обратная связь