Dennou Coil | Food Diary | Denver, ostatni dinozaur / Denver, the Last Dinosaur

Скачать через торрент [MULT] Иван Царевич и Серый Волк 3 бесплатно русская версия torrent активатор

Статистика раздачи
Размер:  621 MB   |    Зарегистрирован:  2 года 5 месяцев   |    .torrent скачан:  41 раз   |   
Раздают:  1  
   
загрузка...
 
Автор Сообщение

Galfimbul

avatar Galfimbul


Иван Царевич и Серый Волк 3
Год выпуска: 2015
Страна: Россия
Жанр: мультфильм, приключения, семейный
Продолжительность: 01:16:55
Перевод: Не требуется
Cубтитры: нет
Оригинальная аудиодорожка: русский
Режиссер: Дарина Шмидт

В ролях: Никита Ефремов, Иван Охлобыстин, Михаил Боярский, Артур Смольянинов, Татьяна Бунина, Михаил Хрусталев, Дмитрий Высоцкий, Олег Куликович, Анатолий Петров, Роман Никитин
Описание: Царь Тридевятого царства, в честь своего 150-летия решил, что с него хватит — пора на заслуженный отдых. «Я устал. Я ухожу», — заявил самодержец и с удочкой и ведёрком удалился в деревенскую глушь. А оберегать государство остались Иван с Серым Волком. Вот только Василиса, жена Ивана, заявила, что свадебного путешествия у неё не было, заграницу она не видела, «постить» в инстаграм решительно нечего и вообще.

Иван спорить не стал, а вместе с Василисой, Котом — ученым и Серым Волком, погрузился на ковер-самолет и отправился в путь. А за главного в стране герои оставили самое обычное огородное пугало… Но пока компания шаталась по Миланам и Парижам, Пугало ожило и начало наводить свои порядки в Тридевятом царстве…

Исходник (ссылка): [url]...5163916[/url]
Качество: WEB-DLRip
Формат: MP4
Видео: 640x360, 1000 kbps, 24 fps
Аудио: 48 KHz, ~128 Kbps, 2.0 ch
Format : MPEG-4Format profile : Base MediaCodec ID : isomFile size : 621 MiBDuration : 1h 16mnOverall bit rate mode : VariableOverall bit rate : 1 128 KbpsEncoded date : UTC 2016-02-05 00:14:49Tagged date : UTC 2016-02-05 00:14:49

VideoID : 1Format : AVCFormat/Info : Advanced Video CodecFormat profile : [email protected] settings, CABAC : NoFormat settings, ReFrames : 3 framesCodec ID : avc1Codec ID/Info : Advanced Video CodingDuration : 1h 16mnBit rate : 1 000 KbpsMaximum bit rate : 4 708 KbpsWidth : 640 pixelsHeight : 360 pixelsDisplay aspect ratio : 16:9Frame rate mode : ConstantFrame rate : 24.000 fpsColor space : YUVChroma subsampling : 4:2:0Bit depth : 8 bitsScan type : ProgressiveBits/(Pixel*Frame) : 0.181Stream size : 550 MiB (89%)Writing library : x264 core 148 r2665 a01e339Encoding settings : cabac=0 / ref=3 / deblock=1:0:0 / analyse=0x1:0x111 / me=umh / subme=10 / psy=1 / psy_rd=1.00:0.00 / mixed_ref=1 / me_range=32 / chroma_me=1 / trellis=2 / 8x8dct=0 / cqm=0 / deadzone=21,11 / fast_pskip=0 / chroma_qp_offset=-2 / threads=6 / lookahead_threads=1 / sliced_threads=0 / nr=0 / decimate=1 / interlaced=0 / bluray_compat=0 / constrained_intra=0 / bframes=0 / weightp=0 / keyint=240 / keyint_min=24 / scenecut=40 / intra_refresh=0 / rc_lookahead=60 / rc=2pass / mbtree=0 / bitrate=1000 / ratetol=1.0 / qcomp=0.60 / qpmin=0 / qpmax=69 / qpstep=4 / cplxblur=20.0 / qblur=0.5 / vbv_maxrate=10000 / vbv_bufsize=10000 / nal_hrd=none / filler=0 / ip_ratio=1.30 / aq=1:1.00Encoded date : UTC 2016-02-04 22:21:48Tagged date : UTC 2016-02-05 00:15:12

AudioID : 2Format : AACFormat/Info : Advanced Audio CodecFormat profile : LCCodec ID : 40Duration : 1h 16mnBit rate mode : VariableBit rate : 125 KbpsMaximum bit rate : 193 KbpsChannel(s) : 2 channelsChannel positions : Front: L RSampling rate : 48.0 KHzCompression mode : LossyStream size : 69.0 MiB (11%)Language : RussianEncoded date : UTC 2016-02-04 19:37:05Tagged date : UTC 2016-02-05 00:15:12



Трекер:  [ 05-Фев-2016 10:30 ]

  

Скачать .torrent

Размер .torrent файла 12 KB


Размер: 621 MB
Хэш (hash) релиза: 806e6c6e8cba7bee29d7847cfeb594dbd5cbdbff

Еще никто не оставлял запись к записи скачать торрент [MULT] Иван Царевич и Серый Волк 3 . Будь первым!

!Обратная связь