Our House | Bigfoot Junior film complet | Dr Seuss

Скачать через торрент [VIDEO] Легенда Legend бесплатно русская версия torrent активатор

Статистика раздачи
Размер:  2.03 GB   |    Зарегистрирован:  2 года 5 месяцев   |    .torrent скачан:  24 раза   |   
Раздают:  1  
   
загрузка...
 
Автор Сообщение

Galfimbul

avatar Galfimbul


Легенда / Legend«Преступление – как профессия. Взлет и падение легендарных близнецов Крэй»
Год выпуска: 2015
Оригинальное название: Legend
Страна: Великобритания, США, Франция
Жанр: криминал, триллер, драма
Возраст: 18+

Режиссер: Брайан Хелгеленд

В ролях: Том Харди, Эмили Браунинг, Дэвид Тьюлис, Даффи, Кристофер Экклстон, Чазз Пальминтери, Колин Морган, Джошуа Хилл, Пол Андерсон, Тара Фитцджеральд, Николас Фэррел, Адам Фогерти, Мел Райдо, Мейджор Джон Финли, Милли Брэйди, Крис Мэйсон, Стивен Томпсон, Сэм Спруэлл, Тэрон Эджертон, Алекс Фернс

Описание: Фильм расскажет историю близнецов Реджи и Ронни Крэй, культовых фигур преступного мира Великобритании 1960-х. Братья возглавляли самую влиятельную бандитскую группировку Ист-Энда. В их послужном списке: вооруженные грабежи, рэкет, поджоги, покушения, убийства и собственный ночной клуб, куда доезжали даже голливудские знаменитости. Среди их жертв — криминальные авторитеты Джек МакВитти и Джордж Корнелл.

Продолжительность: 02:11:08
Перевод: Дублированный [Лицензия]
Оригинальная дорожка: нет

Автор рипа:

Качество видео: BDRip Исходник: Blu-Ray Remux (1080p) Формат: mp4
Видео кодек: MPEG-4 AVC Аудио кодек: AAC
Видео: 1280x536 at 24.000 fps, AVC at 2 086 kbps avg, 0.127 bit/pixel
Аудио №1 Rus: 48.0 KHz, AAC, 2 ch, 128.0 Kbps
Субтитры: нет
Навигация по главам: есть
avs [info]: 1280x536p 1:1 @ 24/1 fps (cfr)
x264 [info]: using SAR=1/1
x264 [info]: using cpu capabilities: MMX2 SSE2Fast SSSE3 Cache64
x264 [info]: profile High, level 4.1
x264 [info]: frame I:1487 Avg QP:14.53 size:118539
x264 [info]: frame P:35782 Avg QP:17.75 size: 27124
x264 [info]: frame B:151418 Avg QP:18.84 size: 5967
x264 [info]: consecutive B-frames: 1.2% 1.1% 4.1% 17.0% 19.8% 32.1% 7.6% 9.5% 2.8% 3.1% 1.5%
x264 [info]: mb I I16..4: 12.2% 57.9% 29.9%
x264 [info]: mb P I16..4: 1.0% 7.2% 1.1% P16..4: 42.0% 20.2% 16.1% 0.7% 0.3% skip:11.4%
x264 [info]: mb B I16..4: 0.1% 0.5% 0.1% B16..8: 38.4% 6.8% 1.3% direct: 3.7% skip:49.1% L0:44.6% L1:49.0% BI: 6.4%
x264 [info]: 8x8 transform intra:73.0% inter:59.0%
x264 [info]: direct mvs spatial:99.9% temporal:0.1%
x264 [info]: coded y,uvDC,uvAC intra: 81.8% 74.7% 56.0% inter: 15.6% 16.9% 2.8%
x264 [info]: i16 v,h,dc,p: 42% 12% 19% 27%
x264 [info]: i8 v,h,dc,ddl,ddr,vr,hd,vl,hu: 20% 12% 30% 5% 7% 7% 6% 7% 7%
x264 [info]: i4 v,h,dc,ddl,ddr,vr,hd,vl,hu: 26% 15% 15% 6% 9% 9% 8% 7% 6%
x264 [info]: i8c dc,h,v,p: 55% 16% 21% 7%
x264 [info]: Weighted P-Frames: Y:2.2% UV:1.5%
x264 [info]: ref P L0: 47.7% 11.1% 16.8% 6.5% 5.5% 4.1% 3.7% 2.2% 2.3% 0.1% 0.0%
x264 [info]: ref B L0: 76.1% 11.4% 5.5% 2.5% 1.8% 1.5% 0.8% 0.3%
x264 [info]: ref B L1: 92.1% 7.9%
x264 [info]: kb/s:2086.32
encoded 188687 frames, 2.67 fps, 2086.32 kb/s
GeneralComplete name : E:\Legenda.2015_KinoGadget.mp4Format : MPEG-4Format profile : Base MediaCodec ID : isomFile size : 2.03 GiBDuration : 2h 11mnOverall bit rate mode : VariableOverall bit rate : 2 220 KbpsMovie name : ЛегендаPerformer : Брайан ХелгелендGenre : Crime, DramaContentType : Short FilmRecorded date : 2015Encoded date : UTC 2016-02-03 16:25:04Tagged date : UTC 2016-02-03 16:36:17Cover : YesContentRating : mpaa|R|400|

LongDescription : Фильм расскажет историю близнецов Реджи и Ронни Крэй, культовых фигур преступного мира Великобритании 1960-х. Братья возглавляли самую влиятельную бандитскую группировку Ист-Энда. В их послужном списке: вооруженные грабежи, рэкет, поджоги, покушения, убийства и собственный ночной клуб, куда доезжали даже голливудские знаменитости. Среди их жертв — криминальные авторитеты Джек МакВитти и Джордж Корнелл.HDVideo : Yes

VideoID : 1Format : AVCFormat/Info : Advanced Video CodecFormat profile : [email protected] settings, CABAC : YesFormat settings, ReFrames : 9 framesCodec ID : avc1Codec ID/Info : Advanced Video CodingDuration : 2h 11mnBit rate : 2 086 KbpsMaximum bit rate : 11.2 MbpsWidth : 1 280 pixelsHeight : 536 pixelsDisplay aspect ratio : 2.40:1Frame rate mode : ConstantFrame rate : 24.000 fpsColor space : YUVChroma subsampling : 4:2:0Bit depth : 8 bitsScan type : ProgressiveBits/(Pixel*Frame) : 0.127Stream size : 1.91 GiB (94%)Writing library : x264 core 148 r2638 7599210Encoding settings : cabac=1 / ref=9 / deblock=1:-1:-1 / analyse=0x3:0x133 / me=umh / subme=7 / psy=1 / psy_rd=1.00:0.15 / mixed_ref=1 / me_range=24 / chroma_me=1 / trellis=2 / 8x8dct=1 / cqm=0 / deadzone=21,11 / fast_pskip=1 / chroma_qp_offset=-3 / threads=3 / lookahead_threads=1 / sliced_threads=0 / nr=0 / decimate=1 / interlaced=0 / bluray_compat=0 / constrained_intra=0 / bframes=10 / b_pyramid=2 / b_adapt=2 / b_bias=0 / direct=3 / weightb=1 / open_gop=0 / weightp=2 / keyint=240 / keyint_min=24 / scenecut=40 / intra_refresh=0 / rc_lookahead=60 / rc=crf / mbtree=1 / crf=20.0 / qcomp=0.60 / qpmin=0 / qpmax=69 / qpstep=4 / ip_ratio=1.40 / aq=1:1.50Language : EnglishEncoded date : UTC 2016-02-03 16:17:37Tagged date : UTC 2016-02-03 16:26:49

AudioID : 2Format : AACFormat/Info : Advanced Audio CodecFormat profile : LCCodec ID : 40Duration : 2h 11mnBit rate mode : VariableBit rate : 128 KbpsMaximum bit rate : 135 KbpsChannel count : 2 channelsChannel positions : Front: L RSampling rate : 48.0 KHzCompression mode : LossyStream size : 120 MiB (6%)Language : RussianEncoded date : UTC 2016-02-03 16:07:04Tagged date : UTC 2016-02-03 16:26:49

Menu00:00:00.000 : Chapter 0100:10:25.291 : Chapter 0200:21:04.916 : Chapter 0300:30:57.125 : Chapter 0400:43:26.291 : Chapter 0500:50:36.958 : Chapter 0601:02:41.333 : Chapter 0701:12:30.375 : Chapter 0801:23:04.041 : Chapter 0901:33:02.708 : Chapter 1001:43:27.291 : Chapter 1101:54:15.666 : Chapter 12
[url=...39840292] [/url]

Трекер:  [ 03-Фев-2016 20:00 ]

  

Скачать .torrent

Размер .torrent файла 10 KB


Размер: 2.03 GB
Хэш (hash) релиза: 5172c26ec3ecdc9affcc03c98718ebb45d7874a1

Торренты, похожие на [VIDEO] Легенда Legend скачать торрент

Форум Название Автор Размер S L Добавлен
Видео (Фильмы/Клипы) ·· [VIDEO] Тарзан. Легенда / The Legend of Tarzan (Дэвид Йейтс / David Yates) [2016, боевик, драма, мелодрама, приключения, BDRip] [MP4, 1280x] Galfimbul 18552471751.73 GB 0 0 1480840604

11:36

4-Дек-16

Еще никто не оставлял запись к записи скачать торрент [VIDEO] Легенда Legend . Будь первым!

!Обратная связь