Die Industrielle-Revolutions-Show Twenty-Five Little Pre-pubers Without a Snoot-ful | Peliculas actualizadas | Power Rangers Space Patrol Delta

Скачать через торрент [VIDEO] Не надо печалиться бесплатно русская версия torrent активатор

Статистика раздачи
Размер:  786 MB   |    Зарегистрирован:  2 года 5 месяцев   |    .torrent скачан:  38 раз   |   
Раздают:  1  
   
загрузка...
 
Автор Сообщение

Galfimbul

avatar Galfimbul


Не надо печалиться
Год выпуска: 2010
Страна: Россия
Жанр: комедия
Продолжительность: 01:30:46

Режиссер: Иван Бычков
Сценарий: Алексей Тимм
Продюсер: Наталья Серова, Леонид Биц
Оператор: Радик Аскаров
Композитор: Дмитрий Смирнов, Константин Шевелев
Художник: Элина Бурдо
Монтаж: Алексей Бобров

В ролях: Владимир Ильин, Евгений Стычкин, Юрий Степанов, Людмила Артемьева, Фёдор Добронравов, Нина Усатова, Елена Котихина, Кристина Бабушкина, Сергей Фролов, Игорь Гаспарян, Ирина Баринова, Кирилл Исаев, Дмитрий Богданов, Владимир Терещенков, Давид Мелконян

Описание: В деревне Малые Засеки на границе с Белоруссией жизнь течет своим чередом. Братья Павел и Андрей Тюхи проживают теперь в разных государствах. Главная местная достопримечательность Малых Засек — молодой бычок по кличке Тайсон. Хозяин Савелий хотел сделать из него мраморный стейк и растил в лучших японских традициях — поил алкоголем и делал массаж, однако заколоть животное рука так и не поднялась. Тайсон, хотя и остался целым и невредимым, но отказаться от ежедневного ведерка алкоголя уже не может. Привычное течение жизни нарушает приезд Тюхи-младшего, молодого бизнесмена из Москвы, который не находит лучшего места, для того, чтобы скрыться от столичных проблем. Не проходит и дня, как в голове у юного дарования рождается идея «ноу-хау», как в один момент заработать приличные деньги. Главным козырем в этой российско-белорусской операции придется стать Тайсону.

Качество: DVDRip |[url=...2919253]DVD5[/url]|
Формат: MP4

Видео: 600x360, [email protected], AR:1.66, 1080 kbps, 25.000 fps, 0.200 bpp
Аудио: 2ch, 48 kHz, 128 kbps

[b]Релиз:

</a></span></span>
ОбщееУникальный идентификатор : 241000731177719072551087978140751442095 (0xB54F0D6F4AE1379A93A8FF735FB930AF)Полное имя : C:\NE_NADO\[email protected]Формат : MatroskaВерсия формата : Version 4 / Version 2Размер файла : 786 МбайтПродолжительность : 1 ч. 30 м.Общий поток : 1211 Кбит/секНазвание фильма : Не надо печалиться / 2009 [email protected]=-Дата кодирования : UTC 2016-01-28 04:19:37Программа кодирования : mkvmerge v8.8.0 ('Wind at my back') 32bitБиблиотека кодирования : libebml v1.3.3 + libmatroska v1.4.4

ВидеоИдентификатор : 1Формат : AVCФормат/Информация : Advanced Video CodecПрофиль формата : [email protected]Параметр CABAC формата : ДаПараметр ReFrames формата : 9 кадровИдентификатор кодека : V_MPEG4/ISO/AVCПродолжительность : 1 ч. 30 м.Битрейт : 1079 Кбит/секШирина : 600 пикселейВысота : 360 пикселейСоотношение сторон : 5:3Режим частоты кадров : ПостоянныйЧастота кадров : 25,000 кадров/секЦветовое пространство : YUVСубдискретизация насыщенности : 4:2:0Битовая глубина : 8 битТип развёртки : ПрогрессивнаяБит/(Пиксели*Кадры) : 0.200Размер потока : 700 Мбайт (89%)Заголовок : Rip by nnlabetikБиблиотека кодирования : x264 core 148 r2638 7599210Настройки программы : cabac=1 / ref=9 / deblock=1:-2:-1 / analyse=0x3:0x113 / me=umh / subme=11 / psy=1 / psy_rd=1.00:0.00 / mixed_ref=1 / me_range=32 / chroma_me=1 / trellis=2 / 8x8dct=1 / cqm=0 / deadzone=21,11 / fast_pskip=0 / chroma_qp_offset=-2 / threads=4 / lookahead_threads=1 / sliced_threads=0 / nr=0 / decimate=1 / interlaced=0 / bluray_compat=0 / constrained_intra=0 / bframes=10 / b_pyramid=2 / b_adapt=2 / b_bias=0 / direct=3 / weightb=1 / open_gop=0 / weightp=0 / keyint=250 / keyint_min=25 / scenecut=40 / intra_refresh=0 / rc_lookahead=60 / rc=2pass / mbtree=0 / bitrate=1079 / ratetol=1.0 / qcomp=0.60 / qpmin=0 / qpmax=69 / qpstep=4 / cplxblur=20.0 / qblur=0.5 / vbv_maxrate=20000 / vbv_bufsize=25000 / nal_hrd=none / filler=0 / ip_ratio=1.35 / pb_ratio=1.25 / aq=1:1.00Язык : RussianDefault : ДаForced : НетЦветовой диапазон : LimitedОсновные цвета : BT.709Характеристики трансфера : BT.709Коэффициенты матрицы : BT.709

АудиоИдентификатор : 2Формат : AACФормат/Информация : Advanced Audio CodecПрофиль формата : LCИдентификатор кодека : A_AACПродолжительность : 1 ч. 30 м.Битрейт : 132 Кбит/секКаналы : 2 каналаРасположение каналов : Front: L RЧастота : 48,0 КГцЧастота кадров : 46,875 кадров/сек (1024 spf)Метод сжатия : С потерямиЗадержка видео : 5 мс.Размер потока : 84,8 Мбайт (11%)Язык : RussianDefault : ДаForced : Нет

Меню00:00:00.000 : :Chapter 0100:03:25.920 : :Chapter 0200:08:48.480 : :Chapter 0300:15:00.480 : :Chapter 0400:19:19.680 : :Chapter 0500:24:01.920 : :Chapter 0600:30:55.680 : :Chapter 0700:37:07.680 : :Chapter 0800:41:32.640 : :Chapter 0900:48:08.640 : :Chapter 1000:55:59.040 : :Chapter 1101:02:17.280 : :Chapter 1201:06:45.600 : :Chapter 1301:11:44.160 : :Chapter 1401:15:52.800 : :Chapter 1501:18:05.280 : :Chapter 1601:21:17.760 : :Chapter 1701:25:02.400 : :Chapter 1801:30:44.640 : :Chapter 19


Трекер:  [ 02-Фев-2016 05:30 ]

  

Скачать .torrent

Размер .torrent файла 16 KB


Размер: 786 MB
Хэш (hash) релиза: 9f43ceb00deb338f52c2b1fe44328ca2aeb3c67a

Еще никто не оставлял запись к записи скачать торрент [VIDEO] Не надо печалиться . Будь первым!

!Обратная связь