Deadbeat | Windows 7 Gamer Edition x64. | American Horror Story

Скачать через торрент [MULT] Иван Царевич и Серый Волк II бесплатно русская версия torrent активатор

Статистика раздачи
Размер:  532 MB   |    Зарегистрирован:  2 года 5 месяцев   |    .torrent скачан:  13 раз   |   
Раздают:  1  
   
загрузка...
 
Автор Сообщение

Galfimbul

avatar Galfimbul


Иван Царевич и Серый Волк II
Год выпуска: 2013
Страна: Россия
Жанр: Мультфильм, семейный
Продолжительность: 01:09:46
Перевод: Не требуется
Cубтитры: нет
Режиссер: Владимир Торопчин

В ролях: Никита Ефремов, Татьяна Бунина, Ивaн Охлобыстин, Михаил Боярский, Ирина Рахманова, Александр Боярский
Описание: В Тридевятом царстве, где живут наши герои — тишь да благодать. Иван женился на Василисе, и «жили они долго и счастливо», да не тут-то было… Иван, целыми днями пропадая с Волком на службе, укрепляет рубежи и оборонную мощь, мечтает перевести стрелки часов на семь назад, чтобы меньше спать и больше работать.

А Василисе скучно, как всем девушкам, ей хочется романтики, ну, такой, как в сказках. И тогда она решает организовать своё похищение, как будто её похитил злой Черномор… Однако когда такое бывало, что в сказках всё получалось так, как задумывалось?

Ивану, узнавшему о похищении жены, конечно, ничего не остается делать, как спасти её. Ну, а поскольку его впереди ждут опасные приключения, в подмогу он берет с собой давнего друга и товарища Волка. Отправляются с помощью пушечного выстрела в дальние путешествия. Теперь Иван и Волк не будут скучать и встретят новых друзей — это Наина, Лунная лягушка и Старшина.
Качество: DVDRip
Формат: MP4
Видео кодек: H.264
Аудио кодек: AAC
Видео: 640x360, 1000 Kbps, 25 fps
Аудио: 48 KHz, ~64 Kbps, 2.0 ch
Format                           : MPEG-4
Format profile                   : Base Media
Codec ID                         : isom
File size                        : 532 MiB
Duration                         : 1h 9mn
Overall bit rate mode            : Variable
Overall bit rate                 : 1 066 Kbps
Encoded date                     : UTC 2014-01-17 21:30:38
Tagged date                      : UTC 2014-01-17 21:30:38
Writing application              : Yamb 2.1.0.0 [http://yamb.unite-video.com]

Video
ID                               : 1
Format                           : AVC
Format/Info                      : Advanced Video Codec
Format profile                   : [email protected]
Format settings, CABAC           : No
Format settings, ReFrames        : 3 frames
Codec ID                         : avc1
Codec ID/Info                    : Advanced Video Coding
Duration                         : 1h 9mn
Bit rate                         : 1 000 Kbps
Maximum bit rate                 : 6 706 Kbps
Width                            : 640 pixels
Height                           : 360 pixels
Display aspect ratio             : 16:9
Frame rate mode                  : Constant
Frame rate                       : 25.000 fps
Color space                      : YUV
Chroma subsampling               : 4:2:0
Bit depth                        : 8 bits
Scan type                        : Progressive
Bits/(Pixel*Frame)               : 0.174
Stream size                      : 499 MiB (94%)
Writing library                  : x264 core 140 r2377 1ca7bb9
Encoding settings                : cabac=0 / ref=3 / deblock=1:0:0 / analyse=0x1:0x111 / me=umh / subme=10 / psy=1 / psy_rd=1.00:0.00 / mixed_ref=1 / me_range=32 / chroma_me=1 / trellis=2 / 8x8dct=0 / cqm=0 / deadzone=21,11 / fast_pskip=0 / chroma_qp_offset=-2 / threads=6 / lookahead_threads=1 / sliced_threads=0 / nr=0 / decimate=1 / interlaced=0 / bluray_compat=0 / constrained_intra=0 / bframes=0 / weightp=0 / keyint=250 / keyint_min=25 / scenecut=40 / intra_refresh=0 / rc_lookahead=60 / rc=2pass / mbtree=0 / bitrate=1000 / ratetol=1.0 / qcomp=0.60 / qpmin=0 / qpmax=69 / qpstep=4 / cplxblur=20.0 / qblur=0.5 / vbv_maxrate=5000 / vbv_bufsize=5000 / nal_hrd=none / filler=0 / ip_ratio=1.30 / aq=1:1.00
Language                         : Russian
Encoded date                     : UTC 2014-01-17 21:30:38
Tagged date                      : UTC 2014-01-17 21:31:13

Audio
ID                               : 2
Format                           : AAC
Format/Info                      : Advanced Audio Codec
Format profile                   : HE-AAC / LC
Codec ID                         : 40
Duration                         : 1h 9mn
Bit rate mode                    : Variable
Bit rate                         : 63.8 Kbps
Maximum bit rate                 : 94.3 Kbps
Channel(s)                       : 2 channels
Channel positions                : Front: L R
Sampling rate                    : 48.0 KHz / 24.0 KHz
Compression mode                 : Lossy
Stream size                      : 31.8 MiB (6%)
Language                         : Russian
Encoded date                     : UTC 2014-01-17 21:31:11
Tagged date                      : UTC 2014-01-17 21:31:13



Трекер:  [ 31-Янв-2016 17:00 ]

  

Скачать .torrent

Размер .torrent файла 11 KB


Размер: 532 MB
Хэш (hash) релиза: 51a68ab58168585f13e3d5ad46931002f8184a0a

Еще никто не оставлял запись к записи скачать торрент [MULT] Иван Царевич и Серый Волк II . Будь первым!

!Обратная связь