Season 1 Episode 1 Daybreak | Running Man Episode 361 | Wizard Barristers: Benmashi Cecil

Скачать через торрент [VIDEO] Голос улиц Straight Outta Compton бесплатно русская версия torrent активатор

Статистика раздачи
Размер:  2.09 GB   |    Зарегистрирован:  2 года 5 месяцев   |    .torrent скачан:  50 раз   |   
Раздают:  1  
   
загрузка...
 
Автор Сообщение

Galfimbul

avatar Galfimbul


Голос улиц / Straight Outta Compton«Самая опасная группа в мире»
Год выпуска: 2015
Оригинальное название: Straight Outta Compton
Страна: США
Жанр: драма, биография, история, музыка
Возраст: 16+

Режиссер: Ф. Гэри Грей

В ролях: О’Ши Джексон мл., Кори Хоукинс, Джейсон Митчелл, Нил Браун мл., Элдис Ходж, Марлон Йэтс мл., Р. Маркус Тейлор, Карра Паттерсон, Александра Шипп, Пол Джаматти

Описание: 1987 год. Пятеро молодых и дерзких парней из пригорода Лос-Анджелеса начинают свой стремительный путь к славе… Они станут голосом улиц, и весь мир будет у ног бунтарей из N.W.A.

Продолжительность: 02:26:38
Перевод: Дублированный [Blu-Ray CEE]
Оригинальная дорожка: нет

Автор рипа:

Качество видео: BDRip Исходник: Blu-Ray CEE (1080p) Формат: mp4
Видео кодек: MPEG-4 AVC Аудио кодек: AAC
Видео: 1280x532 at 23.976 fps, AVC at 1 907 kbps avg, 0.117 bit/pixel
Аудио №1 Rus: 48.0 KHz, AAC, 2 ch, 128.0 Kbps
Субтитры: нет
Навигация по главам: нет
avs [info]: 1280x532p 1:1 @ 24000/1001 fps (cfr)
x264 [info]: using SAR=1/1
x264 [info]: using cpu capabilities: MMX2 SSE2Fast SSSE3 Cache64
x264 [info]: profile High, level 4.1
x264 [info]: frame I:1565 Avg QP:13.60 size: 80739
x264 [info]: frame P:45899 Avg QP:17.03 size: 21549
x264 [info]: frame B:163493 Avg QP:19.25 size: 6009
x264 [info]: consecutive B-frames: 2.2% 2.4% 9.6% 19.5% 20.1% 29.3% 7.3% 3.4% 2.4% 2.3% 1.5%
x264 [info]: mb I I16..4: 10.5% 68.6% 20.9%
x264 [info]: mb P I16..4: 4.0% 11.6% 2.0% P16..4: 43.9% 15.0% 12.2% 0.5% 0.2% skip:10.6%
x264 [info]: mb B I16..4: 0.3% 0.8% 0.2% B16..8: 41.5% 6.4% 1.2% direct: 4.2% skip:45.5% L0:44.0% L1:48.9% BI: 7.1%
x264 [info]: 8x8 transform intra:66.3% inter:68.2%
x264 [info]: direct mvs spatial:100.0% temporal:0.0%
x264 [info]: coded y,uvDC,uvAC intra: 60.8% 74.7% 50.3% inter: 13.4% 18.3% 3.3%
x264 [info]: i16 v,h,dc,p: 48% 14% 8% 31%
x264 [info]: i8 v,h,dc,ddl,ddr,vr,hd,vl,hu: 21% 15% 25% 5% 7% 7% 7% 7% 6%
x264 [info]: i4 v,h,dc,ddl,ddr,vr,hd,vl,hu: 34% 16% 17% 5% 7% 7% 6% 5% 4%
x264 [info]: i8c dc,h,v,p: 53% 19% 20% 8%
x264 [info]: Weighted P-Frames: Y:3.8% UV:2.5%
x264 [info]: ref P L0: 50.6% 8.4% 16.6% 7.0% 5.1% 4.2% 3.4% 2.2% 2.0% 0.4% 0.0%
x264 [info]: ref B L0: 78.4% 10.1% 5.0% 2.3% 1.7% 1.4% 0.8% 0.3%
x264 [info]: ref B L1: 92.8% 7.2%
x264 [info]: kb/s:1907.48
encoded 210957 frames, 2.76 fps, 1907.48 kb/s
GeneralComplete name : E:\Golos_ulic.2015_KinoGadget.mp4Format : MPEG-4Format profile : Base MediaCodec ID : isomFile size : 2.09 GiBDuration : 2h 26mnOverall bit rate mode : VariableOverall bit rate : 2 043 KbpsMovie name : Голос улиц | KinoGadgetPerformer : Ф. Гэри ГрейGenre : Drama, HistoricalContentType : Short FilmRecorded date : 2015Encoded date : UTC 2016-01-29 15:30:58Tagged date : UTC 2016-01-29 15:50:01Cover : YesContentRating : mpaa|R|400|

LongDescription : 1987 год. Пятеро молодых и дерзких парней из пригорода Лос-Анджелеса начинают свой стремительный путь к славе… Они станут голосом улиц, и весь мир будет у ног бунтарей из N.W.A.HDVideo : Yes

VideoID : 1Format : AVCFormat/Info : Advanced Video CodecFormat profile : [email protected] settings, CABAC : YesFormat settings, ReFrames : 9 framesCodec ID : avc1Codec ID/Info : Advanced Video CodingDuration : 2h 26mnBit rate : 1 907 KbpsMaximum bit rate : 14.1 MbpsWidth : 1 280 pixelsHeight : 532 pixelsDisplay aspect ratio : 2.40:1Frame rate mode : ConstantFrame rate : 23.976 fpsColor space : YUVChroma subsampling : 4:2:0Bit depth : 8 bitsScan type : ProgressiveBits/(Pixel*Frame) : 0.117Stream size : 1.95 GiB (93%)Writing library : x264 core 148 r2638 7599210Encoding settings : cabac=1 / ref=9 / deblock=1:-1:-1 / analyse=0x3:0x133 / me=umh / subme=7 / psy=1 / psy_rd=1.00:0.15 / mixed_ref=1 / me_range=32 / chroma_me=1 / trellis=2 / 8x8dct=1 / cqm=0 / deadzone=21,11 / fast_pskip=1 / chroma_qp_offset=-3 / threads=3 / lookahead_threads=1 / sliced_threads=0 / nr=0 / decimate=1 / interlaced=0 / bluray_compat=0 / constrained_intra=0 / bframes=10 / b_pyramid=2 / b_adapt=2 / b_bias=0 / direct=3 / weightb=1 / open_gop=0 / weightp=2 / keyint=240 / keyint_min=23 / scenecut=40 / intra_refresh=0 / rc_lookahead=60 / rc=crf / mbtree=1 / crf=18.0 / qcomp=0.60 / qpmin=0 / qpmax=69 / qpstep=4 / ip_ratio=1.40 / aq=1:1.00Language : EnglishEncoded date : UTC 2016-01-29 15:16:37Tagged date : UTC 2016-01-29 15:32:40

AudioID : 2Format : AACFormat/Info : Advanced Audio CodecFormat profile : LCCodec ID : 40Duration : 2h 26mnBit rate mode : VariableBit rate : 128 KbpsMaximum bit rate : 135 KbpsChannel count : 2 channelsChannel positions : Front: L RSampling rate : 48.0 KHzCompression mode : LossyStream size : 134 MiB (6%)Language : RussianEncoded date : UTC 2016-01-29 15:18:25Tagged date : UTC 2016-01-29 15:32:40
[url=...39840292] [/url]

Трекер:  [ 29-Янв-2016 18:30 ]

  

Скачать .torrent

Размер .torrent файла 11 KB


Размер: 2.09 GB
Хэш (hash) релиза: 1ae68b9f6829bf5b9b68f6ee4a08ddb95f0ea74a

Еще никто не оставлял запись к записи скачать торрент [VIDEO] Голос улиц Straight Outta Compton . Будь первым!

!Обратная связь