Basada en hechos reales | Siming Yang | Smultron 10.1.2 macOS

Скачать через торрент [VIDEO] Общага Alpha House бесплатно русская версия torrent активатор

Статистика раздачи
Размер:  1.84 GB   |    Зарегистрирован:  2 года 5 месяцев   |    .torrent скачан:  30 раз   |   
Раздают:  1  
   
загрузка...
 
Автор Сообщение

Galfimbul

avatar Galfimbul


Общага / Alpha House«The wildest frat house is going... Co-Ed!»
Год выпуска: 2014
Оригинальное название: Alpha House
Страна: США
Жанр: комедия
Возраст: 18+

Режиссер: Джейкоб Куни

В ролях: Джулиан Бенсиммонс, Хезер Пейдж Кон, Крис О Брайен, Джин Луиз О’Салливан, Сэм Отаки

Описание: Когда руководство университета решает избавиться от одного из самых диких и шумных студенческих братств, оно принимает радикальное решение: открыть в братство доступ для студенток-отличниц, чтобы они своим примером перевоспитывали двоечников.

Продолжительность: 01:28:32
Перевод: Любительский одноголосый [Andi]
Оригинальная дорожка: нет

Автор рипа:

Качество видео: BDRip Исходник: Blu-Ray Remux (1080p) Формат: mp4
Видео кодек: MPEG-4 AVC Аудио кодек: AAC
Видео: 1280x720 at 23.976 fps, AVC at 2 841 kbps avg, 0.129 bit/pixel
Аудио №1 Rus: 48.0 KHz, AAC, 2 ch, 128.0 Kbps
Субтитры: нет
Навигация по главам: нет
avs [info]: 1280x720p 1:1 @ 24000/1001 fps (cfr)
x264 [info]: using SAR=1/1
x264 [info]: using cpu capabilities: MMX2 SSE2Fast SSSE3 Cache64
x264 [info]: profile High, level 4.1
x264 [info]: frame I:1512 Avg QP:16.89 size:128261
x264 [info]: frame P:27094 Avg QP:20.09 size: 32199
x264 [info]: frame B:98771 Avg QP:22.15 size: 8308
x264 [info]: consecutive B-frames: 2.0% 1.5% 7.9% 22.2% 20.9% 39.4% 4.3% 2.0%
x264 [info]: mb I I16..4: 8.2% 72.6% 19.2%
x264 [info]: mb P I16..4: 1.8% 11.7% 1.2% P16..4: 45.6% 15.4% 13.1% 0.4% 0.2% skip:10.6%
x264 [info]: mb B I16..4: 0.1% 1.0% 0.1% B16..8: 40.9% 5.5% 1.1% direct: 4.4% skip:46.9% L0:42.4% L1:49.2% BI: 8.4%
x264 [info]: 8x8 transform intra:78.1% inter:72.3%
x264 [info]: direct mvs spatial:100.0% temporal:0.0%
x264 [info]: coded y,uvDC,uvAC intra: 76.4% 86.1% 59.0% inter: 15.4% 27.7% 4.9%
x264 [info]: i16 v,h,dc,p: 25% 13% 9% 54%
x264 [info]: i8 v,h,dc,ddl,ddr,vr,hd,vl,hu: 20% 13% 20% 5% 8% 10% 8% 9% 7%
x264 [info]: i4 v,h,dc,ddl,ddr,vr,hd,vl,hu: 24% 14% 11% 6% 10% 11% 8% 8% 6%
x264 [info]: i8c dc,h,v,p: 50% 17% 23% 11%
x264 [info]: Weighted P-Frames: Y:1.6% UV:0.8%
x264 [info]: ref P L0: 52.4% 14.8% 17.9% 4.8% 4.3% 2.8% 2.9% 0.2% 0.0%
x264 [info]: ref B L0: 85.2% 8.6% 3.5% 1.6% 0.8% 0.4%
x264 [info]: ref B L1: 94.8% 5.2%
x264 [info]: kb/s:2841.32
encoded 127377 frames, 2.28 fps, 2841.32 kb/s
GeneralComplete name : E:\Obshaga.2014_KinoGadget.mp4Format : MPEG-4Format profile : Base MediaCodec ID : isomFile size : 1.84 GiBDuration : 1h 28mnOverall bit rate mode : VariableOverall bit rate : 2 977 KbpsMovie name : ОбщагаPerformer : Джейкоб КуниContentType : Short FilmRecorded date : 2014Encoded date : UTC 2016-01-27 16:31:38Tagged date : UTC 2016-01-27 16:58:33Cover : Yes

LongDescription : Когда руководство университета решает избавиться от одного из самых диких и шумных студенческих братств, оно принимает радикальное решение: открыть в братство доступ для студенток-отличниц, чтобы они своим примером перевоспитывали двоечников.HDVideo : Yes

VideoID : 1Format : AVCFormat/Info : Advanced Video CodecFormat profile : [email protected] settings, CABAC : YesFormat settings, ReFrames : 7 framesCodec ID : avc1Codec ID/Info : Advanced Video CodingDuration : 1h 28mnBit rate : 2 841 KbpsMaximum bit rate : 19.2 MbpsWidth : 1 280 pixelsHeight : 720 pixelsDisplay aspect ratio : 16:9Frame rate mode : ConstantFrame rate : 23.976 fpsColor space : YUVChroma subsampling : 4:2:0Bit depth : 8 bitsScan type : ProgressiveBits/(Pixel*Frame) : 0.129Stream size : 1.76 GiB (95%)Writing library : x264 core 148 r2638 7599210Encoding settings : cabac=1 / ref=7 / deblock=1:-1:-1 / analyse=0x3:0x133 / me=umh / subme=7 / psy=1 / psy_rd=1.00:0.15 / mixed_ref=1 / me_range=32 / chroma_me=1 / trellis=2 / 8x8dct=1 / cqm=0 / deadzone=21,11 / fast_pskip=1 / chroma_qp_offset=-3 / threads=3 / lookahead_threads=1 / sliced_threads=0 / nr=0 / decimate=1 / interlaced=0 / bluray_compat=0 / constrained_intra=0 / bframes=7 / b_pyramid=2 / b_adapt=2 / b_bias=0 / direct=3 / weightb=1 / open_gop=0 / weightp=2 / keyint=240 / keyint_min=23 / scenecut=40 / intra_refresh=0 / rc_lookahead=60 / rc=crf / mbtree=1 / crf=20.0 / qcomp=0.60 / qpmin=0 / qpmax=69 / qpstep=4 / ip_ratio=1.40 / aq=1:1.00Language : EnglishEncoded date : UTC 2016-01-27 15:20:05Tagged date : UTC 2016-01-27 16:33:00

AudioID : 2Format : AACFormat/Info : Advanced Audio CodecFormat profile : LCCodec ID : 40Duration : 1h 28mnBit rate mode : VariableBit rate : 128 KbpsMaximum bit rate : 134 KbpsChannel count : 2 channelsChannel positions : Front: L RSampling rate : 48.0 KHzCompression mode : LossyStream size : 81.1 MiB (4%)Language : RussianEncoded date : UTC 2016-01-27 15:25:42Tagged date : UTC 2016-01-27 16:33:00
[url=...39840292] [/url]

Трекер:  [ 27-Янв-2016 19:00 ]

  

Скачать .torrent

Размер .torrent файла 19 KB


Размер: 1.84 GB
Хэш (hash) релиза: 484e8655c2485702697cbe3d74044d2d0cb07da0

Еще никто не оставлял запись к записи скачать торрент [VIDEO] Общага Alpha House . Будь первым!

!Обратная связь