Deviana Safara - Lawang Ati | Переверни страницу (2017) WEB-DLRip от Files-x | LinkoManija | LM | General | 2018 Review

Скачать через торрент [VIDEO] Стажёр The Intern бесплатно русская версия torrent активатор

Статистика раздачи
Размер:  2.08 GB   |    Зарегистрирован:  2 года 5 месяцев   |    .torrent скачан:  46 раз   |   
Раздают:  1  
   
загрузка...
 
Автор Сообщение

Galfimbul

avatar Galfimbul


Стажёр / The Intern«Опыт всегда в моде»
Год выпуска: 2015
Оригинальное название: The Intern
Страна: США
Жанр: мелодрама, комедия
Возраст: 16+

Режиссер: Нэнси Майерс

В ролях: Роберт Де Ниро, Энн Хэтэуэй, Рене Руссо, Андерс Холм, ДжоДжо Кушнер, Эндрю Рэннеллс, Адам Дивайн, Зак Перлман, Джейсон Орли, Кристина Шерер, Нат Вулф, Линда Лавин, Селия Уэстон, Стив Винович, С.Дж. Уилсон, Мэри Кэй Плэйс, Эрин Маккей, Кристина Брукато, Уоллис Карри-Вуд, Молли Бернард

Описание: 70-летний вдовец Бен Уитакер обнаруживает, что выход на пенсию — еще не конец. Пользуясь случаем, он становится старшим стажером в интернет-магазине модной одежды под руководством Джулс Остин.

Продолжительность: 02:01:32
Перевод: Дублированный [Лицензия]
Оригинальная дорожка: нет

Автор рипа:

Качество видео: BDRip Исходник: Blu-Ray Remux (1080p) Формат: mp4
Видео кодек: MPEG-4 AVC Аудио кодек: AAC
Видео: 1280x720 at 23.976 fps, AVC at 2 318 kbps avg, 0.105 bit/pixel
Аудио №1 Rus: 48.0 KHz, AAC, 2 ch, 128.0 Kbps
Субтитры: русские (форсированные)
Навигация по главам: есть
avs [info]: 1280x720p 1:1 @ 24000/1001 fps (cfr)
x264 [info]: using SAR=1/1
x264 [info]: using cpu capabilities: MMX2 SSE2Fast SSSE3 Cache64
x264 [info]: profile High, level 4.1
x264 [info]: frame I:1850 Avg QP:18.14 size:135568
x264 [info]: frame P:35542 Avg QP:21.36 size: 29908
x264 [info]: frame B:137439 Avg QP:23.86 size: 5813
x264 [info]: consecutive B-frames: 1.5% 1.2% 2.8% 32.9% 14.0% 28.9% 8.7% 10.0%
x264 [info]: mb I I16..4: 7.7% 72.1% 20.2%
x264 [info]: mb P I16..4: 0.8% 5.0% 0.8% P16..4: 45.5% 15.5% 15.2% 0.6% 0.2% skip:16.4%
x264 [info]: mb B I16..4: 0.1% 0.3% 0.0% B16..8: 44.0% 4.5% 0.9% direct: 1.8% skip:48.5% L0:44.4% L1:50.2% BI: 5.4%
x264 [info]: 8x8 transform intra:73.8% inter:65.7%
x264 [info]: direct mvs spatial:100.0% temporal:0.0%
x264 [info]: coded y,uvDC,uvAC intra: 80.8% 83.9% 59.8% inter: 12.1% 19.4% 1.8%
x264 [info]: i16 v,h,dc,p: 41% 14% 9% 36%
x264 [info]: i8 v,h,dc,ddl,ddr,vr,hd,vl,hu: 19% 14% 22% 5% 8% 9% 8% 8% 8%
x264 [info]: i4 v,h,dc,ddl,ddr,vr,hd,vl,hu: 24% 16% 11% 6% 9% 10% 9% 7% 7%
x264 [info]: i8c dc,h,v,p: 53% 17% 22% 9%
x264 [info]: Weighted P-Frames: Y:2.6% UV:0.8%
x264 [info]: ref P L0: 49.1% 14.1% 18.2% 5.9% 5.4% 3.4% 3.8% 0.1% 0.0%
x264 [info]: ref B L0: 80.5% 10.5% 5.0% 2.3% 1.1% 0.6%
x264 [info]: ref B L1: 93.8% 6.2%
x264 [info]: kb/s:2317.93
encoded 174831 frames, 3.21 fps, 2317.93 kb/s
GeneralComplete name : E:\Stazhyor.2015.mp4Format : MPEG-4Format profile : Base MediaCodec ID : isomFile size : 2.08 GiBDuration : 2h 1mnOverall bit rate mode : VariableOverall bit rate : 2 454 KbpsMovie name : СтажёрPerformer : Нэнси МайерсGenre : ComedyContentType : Short FilmRecorded date : 2015Encoded date : UTC 2016-01-26 15:27:58Tagged date : UTC 2016-01-26 15:37:32Cover : Yes

LongDescription : 70-летний вдовец Бен Уитакер обнаруживает, что выход на пенсию — еще не конец. Пользуясь случаем, он становится старшим стажером в интернет-магазине модной одежды под руководством Джулс Остин.HDVideo : Yes

VideoID : 1Format : AVCFormat/Info : Advanced Video CodecFormat profile : [email protected] settings, CABAC : YesFormat settings, ReFrames : 7 framesCodec ID : avc1Codec ID/Info : Advanced Video CodingDuration : 2h 1mnBit rate : 2 318 KbpsMaximum bit rate : 16.4 MbpsWidth : 1 280 pixelsHeight : 720 pixelsDisplay aspect ratio : 16:9Frame rate mode : ConstantFrame rate : 23.976 fpsColor space : YUVChroma subsampling : 4:2:0Bit depth : 8 bitsScan type : ProgressiveBits/(Pixel*Frame) : 0.105Stream size : 1.97 GiB (94%)Writing library : x264 core 148 r2638 7599210Encoding settings : cabac=1 / ref=7 / deblock=1:-1:-1 / analyse=0x3:0x133 / me=umh / subme=7 / psy=1 / psy_rd=1.00:0.15 / mixed_ref=1 / me_range=32 / chroma_me=1 / trellis=2 / 8x8dct=1 / cqm=0 / deadzone=21,11 / fast_pskip=1 / chroma_qp_offset=-3 / threads=3 / lookahead_threads=1 / sliced_threads=0 / nr=0 / decimate=1 / interlaced=0 / bluray_compat=0 / constrained_intra=0 / bframes=7 / b_pyramid=2 / b_adapt=2 / b_bias=0 / direct=3 / weightb=1 / open_gop=0 / weightp=2 / keyint=240 / keyint_min=23 / scenecut=40 / intra_refresh=0 / rc_lookahead=60 / rc=crf / mbtree=1 / crf=21.0 / qcomp=0.60 / qpmin=0 / qpmax=69 / qpstep=4 / ip_ratio=1.40 / aq=1:1.00Language : EnglishEncoded date : UTC 2016-01-26 14:54:17Tagged date : UTC 2016-01-26 15:30:13

AudioID : 2Format : AACFormat/Info : Advanced Audio CodecFormat profile : LCCodec ID : 40Duration : 2h 1mnBit rate mode : VariableBit rate : 128 KbpsMaximum bit rate : 135 KbpsChannel count : 2 channelsChannel positions : Front: L RSampling rate : 48.0 KHzCompression mode : LossyStream size : 111 MiB (5%)Language : RussianEncoded date : UTC 2016-01-26 14:55:36Tagged date : UTC 2016-01-26 15:30:13

TextID : 3Format : Timed TextCodec ID : tx3gDuration : 1h 26mnBit rate mode : VariableBit rate : 2 bpsStream size : 1 014 Bytes (0%)Title : ForcedLanguage : RussianEncoded date : UTC 2016-01-26 15:30:13Tagged date : UTC 2016-01-26 15:30:13

Menu00:00:00.000 : Chapter 100:09:31.153 : Chapter 200:19:55.360 : Chapter 300:30:29.953 : Chapter 400:41:18.434 : Chapter 500:50:18.682 : Chapter 601:00:34.047 : Chapter 701:10:19.048 : Chapter 801:19:16.460 : Chapter 901:30:59.912 : Chapter 1001:42:48.495 : Chapter 1101:51:11.206 : Chapter 1201:56:41.995 : Chapter 13
[url=...39840292] [/url]

Трекер:  [ 26-Янв-2016 18:00 ]

  

Скачать .torrent

Размер .torrent файла 11 KB


Размер: 2.08 GB
Хэш (hash) релиза: 4fdc25f32933ad925318ca18a8696f8ef119e948

mihal 2

Спасибо! Очень хороший фильм-качество раздачи-супер!

Хотите добавить комментарий к записи скачать торрент [VIDEO] Стажёр The Intern

!Обратная связь