Red Sparrow | Les Meilleures Recettes de nos Terroirs | Season 3 Episode 9 All That Josh

Скачать через торрент [VIDEO] Открытые окна Open Windows бесплатно русская версия torrent активатор

Статистика раздачи
Размер:  1.89 GB   |    Зарегистрирован:  2 года 5 месяцев   |    .torrent скачан:  23 раза   |   
Раздают:  1  
   
загрузка...
 
Автор Сообщение

Galfimbul

avatar Galfimbul


Открытые окна / Open Windows«Одна звезда. Один фанат. Один маньяк»
Год выпуска: 2014
Оригинальное название: Open Windows
Страна: Испания, США
Жанр: триллер
Возраст: 16+

Режиссер: Начо Вигалондо

В ролях: Элайджа Вуд, Саша Грей, Нил Мэскелл, Мишель Хеннер, Хулиан Вильягран, Карлос Аресес, Рауль Симас, Мигель Ногера, Начо Вигалондо

Описание: Ник — фанат актрисы Джилл Годдард и редактор ее неофициального сайта. Он выигрывает конкурс, главный приз в котором — ужин со звездой после презентации ее нового фильма. Во время онлайн репортажа с презентации, которая транслируется через сайт Ника, раздается звонок и человек, представившийся Кордом, объявляет ему, что ужин отменен. Ник даже не подозревает, что стал пешкой в игре, цель которой — убийство Джилл…

Продолжительность: 01:40:36
Перевод: Дублированный [Лицензия]
Оригинальная дорожка: нет

Автор рипа:

Качество видео: BDRip Исходник: Blu-Ray Remux (1080p) Формат: mp4
Видео кодек: MPEG-4 AVC Аудио кодек: AAC
Видео: 1280x720 at 24.000 fps, AVC at 2 557 kbps avg, 0.116 bit/pixel
Аудио №1 Rus: 48.0 KHz, AAC, 2 ch, 128.0 Kbps
Субтитры: нет
Навигация по главам: нет
avs [info]: 1280x720p 1:1 @ 24000/1001 fps (cfr)
x264 [info]: using SAR=1/1
x264 [info]: using cpu capabilities: MMX2 SSE2Fast SSSE3 Cache64
x264 [info]: profile High, level 4.1
x264 [info]: frame I:691 Avg QP:18.57 size: 95975
x264 [info]: frame P:30275 Avg QP:21.51 size: 24892
x264 [info]: frame B:113908 Avg QP:22.86 size: 9741
x264 [info]: consecutive B-frames: 2.8% 2.0% 3.8% 9.2% 14.4% 60.4% 7.4%
x264 [info]: mb I I16..4: 7.5% 79.6% 12.9%
x264 [info]: mb P I16..4: 2.1% 7.5% 0.8% P16..4: 48.9% 12.0% 14.4% 0.2% 0.1% skip:14.1%
x264 [info]: mb B I16..4: 0.2% 0.6% 0.1% B16..8: 46.6% 5.4% 0.9% direct: 4.9% skip:41.4% L0:48.3% L1:49.0% BI: 2.7%
x264 [info]: 8x8 transform intra:73.2% inter:76.2%
x264 [info]: direct mvs spatial:100.0% temporal:0.0%
x264 [info]: coded y,uvDC,uvAC intra: 70.0% 71.8% 42.4% inter: 19.2% 29.4% 5.7%
x264 [info]: i16 v,h,dc,p: 25% 49% 4% 21%
x264 [info]: i8 v,h,dc,ddl,ddr,vr,hd,vl,hu: 14% 16% 27% 5% 8% 7% 8% 7% 7%
x264 [info]: i4 v,h,dc,ddl,ddr,vr,hd,vl,hu: 20% 28% 14% 5% 8% 6% 8% 5% 6%
x264 [info]: i8c dc,h,v,p: 58% 20% 16% 6%
x264 [info]: Weighted P-Frames: Y:2.3% UV:1.2%
x264 [info]: ref P L0: 45.1% 9.0% 18.1% 7.1% 6.4% 4.7% 4.6% 2.3% 2.5% 0.2% 0.0%
x264 [info]: ref B L0: 63.8% 14.2% 8.9% 4.4% 3.5% 3.1% 1.8% 0.5%
x264 [info]: ref B L1: 90.0% 10.0%
x264 [info]: kb/s:2557.18
encoded 144874 frames, 1.53 fps, 2557.18 kb/s
GeneralComplete name : E:\Otkrytye_okna.2014.mp4Format : MPEG-4Format profile : Base MediaCodec ID : isomFile size : 1.89 GiBDuration : 1h 40mnOverall bit rate mode : VariableOverall bit rate : 2 693 KbpsMovie name : Открытые окнаPerformer : Начо ВигалондоGenre : Action, Crime, ThrillerContentType : Short FilmRecorded date : 2014Encoded date : UTC 2016-01-26 14:41:20Tagged date : UTC 2016-01-26 15:02:41Cover : Yes

LongDescription : Ник — фанат актрисы Джилл Годдард и редактор ее неофициального сайта. Он выигрывает конкурс, главный приз в котором — ужин со звездой после презентации ее нового фильма. Во время онлайн репортажа с презентации, которая транслируется через сайт Ника, раздается звонок и человек, представившийся Кордом, объявляет ему, что ужин отменен. Ник даже не подозревает, что стал пешкой в игре, цель которой — убийство Джилл…HDVideo : Yes

VideoID : 1Format : AVCFormat/Info : Advanced Video CodecFormat profile : [email protected] settings, CABAC : YesFormat settings, ReFrames : 9 framesCodec ID : avc1Codec ID/Info : Advanced Video CodingDuration : 1h 40mnBit rate : 2 557 KbpsMaximum bit rate : 17.9 MbpsWidth : 1 280 pixelsHeight : 720 pixelsDisplay aspect ratio : 16:9Frame rate mode : ConstantFrame rate : 24.000 fpsColor space : YUVChroma subsampling : 4:2:0Bit depth : 8 bitsScan type : ProgressiveBits/(Pixel*Frame) : 0.116Stream size : 1.80 GiB (95%)Writing library : x264 core 148 r2638 7599210Encoding settings : cabac=1 / ref=9 / deblock=1:-1:-1 / analyse=0x3:0x133 / me=umh / subme=7 / psy=1 / psy_rd=1.00:0.15 / mixed_ref=1 / me_range=32 / chroma_me=1 / trellis=2 / 8x8dct=1 / cqm=0 / deadzone=21,11 / fast_pskip=1 / chroma_qp_offset=-3 / threads=3 / lookahead_threads=1 / sliced_threads=0 / nr=0 / decimate=1 / interlaced=0 / bluray_compat=0 / constrained_intra=0 / bframes=6 / b_pyramid=2 / b_adapt=2 / b_bias=0 / direct=3 / weightb=1 / open_gop=0 / weightp=2 / keyint=240 / keyint_min=24 / scenecut=40 / intra_refresh=0 / rc_lookahead=60 / rc=crf / mbtree=1 / crf=21.0 / qcomp=0.60 / qpmin=0 / qpmax=69 / qpstep=4 / ip_ratio=1.40 / aq=1:1.00Language : EnglishEncoded date : UTC 2016-01-26 14:33:26Tagged date : UTC 2016-01-26 14:42:39

AudioID : 2Format : AACFormat/Info : Advanced Audio CodecFormat profile : LCCodec ID : 40Duration : 1h 40mnBit rate mode : VariableBit rate : 128 KbpsMaximum bit rate : 135 KbpsChannel count : 2 channelsChannel positions : Front: L RSampling rate : 48.0 KHzCompression mode : LossyStream size : 92.0 MiB (5%)Language : RussianEncoded date : UTC 2016-01-26 14:35:22Tagged date : UTC 2016-01-26 14:42:39
[url=...39840292] [/url]

Трекер:  [ 26-Янв-2016 17:30 ]

  

Скачать .torrent

Размер .torrent файла 19 KB


Размер: 1.89 GB
Хэш (hash) релиза: 67781d555ae4e496c31c282264be02a9e370560f

Торренты, похожие на [VIDEO] Открытые окна Open Windows скачать торрент

Форум Название Автор Размер S L Добавлен
Видео (Фильмы/Клипы) ·· [VIDEO] Открытые окна / Open Windows (Начо Вигалондо / Nacho Vigalondo) [2014, триллер, HDRip] [MP4, 960x] Dub Galfimbul 13628408271.27 GB 0 0 1421869803

22:50

21-Янв-15

Еще никто не оставлял запись к записи скачать торрент [VIDEO] Открытые окна Open Windows . Будь первым!

!Обратная связь