Running Man Episode 7 | Renai Boukun: Season 1 | REVOLUTION DIGITAL March 2012 Singapore

Скачать через торрент [VIDEO] Госпожа Америка Mistress America бесплатно русская версия torrent активатор

Статистика раздачи
Размер:  1.17 GB   |    Зарегистрирован:  2 года 5 месяцев   |    .torrent скачан:  15 раз   |   
Раздают:  1  
   
загрузка...
 
Автор Сообщение

Galfimbul

avatar Galfimbul


Госпожа Америка / Mistress America«from strangers to sisters»
Год выпуска: 2015
Оригинальное название: Mistress America
Страна: США, Бразилия
Жанр: комедия
Возраст: 16+

Режиссер: Ноа Баумбак

В ролях: Сет Барриш, Джульетт Бретт, Андреа Чен, Майкл Чернус, Синди Чунг, Шена Даудесвелл, Кэтрин Эрбе, Клер Фоли, Джоэль Марш Гарлэнд, Грета Гервиг

Описание: Трейси — одинокая студентка нью-йоркского колледжа. Ее жизнь скоро изменится благодаря будущей сводной сестре Брук, любящей приключения и втягивающей Трейси в сумасшедшие эскапады.

Продолжительность: 01:24:18
Перевод: Профессиональный многоголосый [iTunes]
Оригинальная дорожка: нет

Автор рипа:

Качество видео: BDRip Исходник: Blu-Ray (1080p) Формат: mp4
Видео кодек: MPEG-4 AVC Аудио кодек: AAC
Видео: 1280x692 at 23.976 fps, AVC at 1 850 kbps avg, 0.087 bit/pixel
Аудио №1 Rus: 48.0 KHz, AAC, 2 ch, 128.0 Kbps
Субтитры: нет
Навигация по главам: нет
avs [info]: 1280x692p 1:1 @ 24000/1001 fps (cfr)
x264 [info]: using SAR=1/1
x264 [info]: using cpu capabilities: MMX2 SSE2Fast SSSE3 Cache64
x264 [info]: profile High, level 4.1
x264 [info]: frame I:1049 Avg QP:16.51 size:102396
x264 [info]: frame P:22398 Avg QP:19.61 size: 23505
x264 [info]: frame B:97825 Avg QP:21.65 size: 5476
x264 [info]: consecutive B-frames: 1.3% 0.6% 2.9% 13.2% 12.3% 56.6% 6.7% 1.5% 1.5% 1.0% 2.6%
x264 [info]: mb I I16..4: 8.6% 73.7% 17.7%
x264 [info]: mb P I16..4: 1.4% 5.4% 0.8% P16..4: 47.0% 14.1% 13.7% 0.3% 0.1% skip:17.1%
x264 [info]: mb B I16..4: 0.1% 0.3% 0.1% B16..8: 38.6% 4.4% 0.8% direct: 2.2% skip:53.6% L0:46.1% L1:48.7% BI: 5.1%
x264 [info]: 8x8 transform intra:71.6% inter:71.9%
x264 [info]: direct mvs spatial:99.9% temporal:0.1%
x264 [info]: coded y,uvDC,uvAC intra: 71.3% 79.5% 51.8% inter: 11.6% 15.9% 1.2%
x264 [info]: i16 v,h,dc,p: 44% 12% 7% 37%
x264 [info]: i8 v,h,dc,ddl,ddr,vr,hd,vl,hu: 24% 13% 22% 5% 7% 9% 6% 8% 6%
x264 [info]: i4 v,h,dc,ddl,ddr,vr,hd,vl,hu: 34% 13% 11% 6% 8% 9% 7% 7% 5%
x264 [info]: i8c dc,h,v,p: 49% 17% 26% 8%
x264 [info]: Weighted P-Frames: Y:1.8% UV:1.0%
x264 [info]: ref P L0: 43.6% 9.9% 19.7% 6.8% 6.5% 4.2% 4.5% 2.2% 2.5% 0.1% 0.0%
x264 [info]: ref B L0: 69.3% 13.3% 7.3% 3.5% 2.6% 2.3% 1.3% 0.4%
x264 [info]: ref B L1: 91.4% 8.6%
x264 [info]: kb/s:1849.82
encoded 121272 frames, 1.98 fps, 1849.82 kb/s
GeneralComplete name : E:\Gospozha_amerika.2015_KinoGadget.mp4Format : MPEG-4Format profile : Base MediaCodec ID : isomFile size : 1.17 GiBDuration : 1h 24mnOverall bit rate mode : VariableOverall bit rate : 1 986 KbpsMovie name : Госпожа АмерикаPerformer : Ноа БаумбакGenre : ComedyContentType : Short FilmRecorded date : 2015Encoded date : UTC 2016-01-24 06:32:11Tagged date : UTC 2016-01-24 06:38:15Cover : YesContentRating : mpaa|R|400|

LongDescription : Трейси — одинокая студентка нью-йоркского колледжа. Ее жизнь скоро изменится благодаря будущей сводной сестре Брук, любящей приключения и втягивающей Трейси в сумасшедшие эскапады.HDVideo : Yes

VideoID : 1Format : AVCFormat/Info : Advanced Video CodecFormat profile : [email protected] settings, CABAC : YesFormat settings, ReFrames : 9 framesCodec ID : avc1Codec ID/Info : Advanced Video CodingDuration : 1h 24mnBit rate : 1 850 KbpsMaximum bit rate : 13.4 MbpsWidth : 1 280 pixelsHeight : 692 pixelsDisplay aspect ratio : 1.85:1Frame rate mode : ConstantFrame rate : 23.976 fpsColor space : YUVChroma subsampling : 4:2:0Bit depth : 8 bitsScan type : ProgressiveBits/(Pixel*Frame) : 0.087Stream size : 1.09 GiB (93%)Writing library : x264 core 148 r2638 7599210Encoding settings : cabac=1 / ref=9 / deblock=1:-1:-1 / analyse=0x3:0x133 / me=umh / subme=7 / psy=1 / psy_rd=1.00:0.15 / mixed_ref=1 / me_range=32 / chroma_me=1 / trellis=2 / 8x8dct=1 / cqm=0 / deadzone=21,11 / fast_pskip=1 / chroma_qp_offset=-3 / threads=3 / lookahead_threads=1 / sliced_threads=0 / nr=0 / decimate=1 / interlaced=0 / bluray_compat=0 / constrained_intra=0 / bframes=10 / b_pyramid=2 / b_adapt=2 / b_bias=0 / direct=3 / weightb=1 / open_gop=0 / weightp=2 / keyint=240 / keyint_min=23 / scenecut=40 / intra_refresh=0 / rc_lookahead=60 / rc=crf / mbtree=1 / crf=20.0 / qcomp=0.60 / qpmin=0 / qpmax=69 / qpstep=4 / ip_ratio=1.40 / aq=1:1.00Language : EnglishEncoded date : UTC 2016-01-24 06:27:27Tagged date : UTC 2016-01-24 06:33:02

AudioID : 2Format : AACFormat/Info : Advanced Audio CodecFormat profile : LCCodec ID : 40Duration : 1h 24mnBit rate mode : VariableBit rate : 128 KbpsMaximum bit rate : 135 KbpsChannel count : 2 channelsChannel positions : Front: L RSampling rate : 48.0 KHzCompression mode : LossyStream size : 77.2 MiB (6%)Language : RussianEncoded date : UTC 2016-01-24 06:24:12Tagged date : UTC 2016-01-24 06:33:02
[url=...39840292] [/url]

Трекер:  [ 24-Янв-2016 09:00 ]

  

Скачать .torrent

Размер .torrent файла 12 KB


Размер: 1.17 GB
Хэш (hash) релиза: a93fa45aa971eb57a6b5fe3e436ae206264c71c1

Еще никто не оставлял запись к записи скачать торрент [VIDEO] Госпожа Америка Mistress America . Будь первым!

!Обратная связь