The Breaks
Eps1 2 Days In Paris

Скачать через торрент [VIDEO] Иерей-сан. Исповедь самурая бесплатно русская версия torrent активатор

Статистика раздачи
Размер:  1.49 GB   |    Зарегистрирован:  2 года 2 месяца   |    .torrent скачан:  25 раз   |   
Раздают:  1  
   
загрузка...
 
Автор Сообщение

Galfimbul

avatar Galfimbul


Иерей-сан. Исповедь самурая«Воин определяется не силой, а духом»
Год выпуска: 2015
Страна: Россия
Жанр: боевик, драма
Возраст: 12+

Режиссер: Егор Баранов

В ролях: Кэри-Хироюки Тагава, Пётр Фёдоров, Иван Охлобыстин, Игорь Жижикин, Пётр Мамонов, Дарья Екамасова, Любовь Толкалина, Людмила Чурсина, Надежда Маркина, Алина Бабак

Описание: Главный герой — Такуро Накамура, в крещении отец Николай — священник японской православной церкви, в прошлом профессиональный спортсмен, а в настоящем — родной брат главы одного из влиятельных кланов якудза. Однажды он не смог пройти мимо насилия и защитил обычную девушку, вступив в схватку с людьми из враждебной брату группировки. Война кланов якудза неизбежна. Став заложником криминальных «разборок», священник подвергается смертельной опасности и его отправляют служить в российское село Глубокое, раздираемое внутренними конфликтами. Это место крайне интересно Андрею Нелюбину для земельных махинаций, и он готов пойти на все, чтобы жители покинули родные земли. Отец Николай объединяет сельчан вокруг полуразрушенной церкви. Восстанавливая храм, они возродили мир между собой и приняли вызов. Началась уже совсем другая война…

Продолжительность: 01:37:46
Перевод: Оригинал (русский)
Оригинальная дорожка: нет

Автор рипа:

Качество видео: BDRip Исходник: Blu-Ray Remux (1080p) Формат: mp4
Видео кодек: MPEG-4 AVC Аудио кодек: AAC
Видео: 1280x536 at 25.000 fps, AVC at 2 043 kbps avg, 0.119 bit/pixel
Аудио №1 Rus: 48.0 KHz, AAC, 2 ch, 128.0 Kbps
Субтитры: русские (форсированные [вшитые])
Навигация по главам: нет
avs [info]: 1280x536p 1:1 @ 25/1 fps (cfr)
x264 [info]: using SAR=1/1
x264 [info]: using cpu capabilities: MMX2 SSE2Fast SSSE3 Cache64
x264 [info]: profile High, level 4.1
x264 [info]: frame I:1215 Avg QP:16.42 size:104931
x264 [info]: frame P:30268 Avg QP:19.91 size: 26233
x264 [info]: frame B:115189 Avg QP:22.72 size: 5010
x264 [info]: consecutive B-frames: 1.5% 2.1% 5.4% 22.6% 21.3% 27.7% 12.0% 4.5% 1.6% 0.7% 0.7%
x264 [info]: mb I I16..4: 7.8% 71.9% 20.2%
x264 [info]: mb P I16..4: 1.9% 8.7% 1.0% P16..4: 45.3% 15.6% 14.7% 0.6% 0.3% skip:12.0%
x264 [info]: mb B I16..4: 0.1% 0.6% 0.1% B16..8: 37.4% 4.5% 1.0% direct: 3.7% skip:52.5% L0:42.7% L1:48.8% BI: 8.6%
x264 [info]: 8x8 transform intra:74.3% inter:69.6%
x264 [info]: direct mvs spatial:100.0% temporal:0.0%
x264 [info]: coded y,uvDC,uvAC intra: 70.3% 80.6% 53.7% inter: 14.6% 22.9% 3.4%
x264 [info]: i16 v,h,dc,p: 32% 23% 8% 36%
x264 [info]: i8 v,h,dc,ddl,ddr,vr,hd,vl,hu: 22% 15% 21% 5% 7% 9% 7% 8% 7%
x264 [info]: i4 v,h,dc,ddl,ddr,vr,hd,vl,hu: 26% 15% 11% 6% 10% 10% 8% 7% 6%
x264 [info]: i8c dc,h,v,p: 41% 26% 22% 11%
x264 [info]: Weighted P-Frames: Y:7.7% UV:5.8%
x264 [info]: ref P L0: 49.2% 14.0% 17.1% 5.4% 4.9% 3.6% 3.4% 2.1% 0.3% 0.0%
x264 [info]: ref B L0: 82.2% 8.5% 4.2% 2.2% 1.6% 0.9% 0.4%
x264 [info]: ref B L1: 94.3% 5.7%
x264 [info]: kb/s:2043.42
encoded 146672 frames, 2.59 fps, 2043.42 kb/s
GeneralComplete name : E:\Ierej-san_ispoved_samuraya.2015_KinoGadget.mp4Format : MPEG-4Format profile : Base MediaCodec ID : isomFile size : 1.49 GiBDuration : 1h 37mnOverall bit rate mode : VariableOverall bit rate : 2 179 KbpsMovie name : Иерей-сан. Исповедь самураяPerformer : Егор БарановGenre : Action, DramaContentType : Short FilmRecorded date : 2015Encoded date : UTC 2016-01-23 06:53:00Tagged date : UTC 2016-01-23 07:03:52Cover : YesContentRating : mpaa|PG|200|

LongDescription : Главный герой — Такуро Накамура, в крещении отец Николай — священник японской православной церкви, в прошлом профессиональный спортсмен, а в настоящем — родной брат главы одного из влиятельных кланов якудза. Однажды он не смог пройти мимо насилия и защитил обычную девушку, вступив в схватку с людьми из враждебной брату группировки. Война кланов якудза неизбежна. Став заложником криминальных «разборок», священник подвергается смертельной опасности и его отправляют служить в российское село Глубокое, раздираемое внутренними конфликтами.HDVideo : Yes

VideoID : 1Format : AVCFormat/Info : Advanced Video CodecFormat profile : [email protected] settings, CABAC : YesFormat settings, ReFrames : 8 framesCodec ID : avc1Codec ID/Info : Advanced Video CodingDuration : 1h 37mnBit rate : 2 043 KbpsMaximum bit rate : 11.6 MbpsWidth : 1 280 pixelsHeight : 536 pixelsDisplay aspect ratio : 2.40:1Frame rate mode : ConstantFrame rate : 25.000 fpsColor space : YUVChroma subsampling : 4:2:0Bit depth : 8 bitsScan type : ProgressiveBits/(Pixel*Frame) : 0.119Stream size : 1.40 GiB (94%)Writing library : x264 core 148 r2638 7599210Encoding settings : cabac=1 / ref=8 / deblock=1:-1:-1 / analyse=0x3:0x133 / me=umh / subme=7 / psy=1 / psy_rd=1.00:0.15 / mixed_ref=1 / me_range=32 / chroma_me=1 / trellis=2 / 8x8dct=1 / cqm=0 / deadzone=21,11 / fast_pskip=1 / chroma_qp_offset=-3 / threads=3 / lookahead_threads=1 / sliced_threads=0 / nr=0 / decimate=1 / interlaced=0 / bluray_compat=0 / constrained_intra=0 / bframes=10 / b_pyramid=2 / b_adapt=2 / b_bias=0 / direct=3 / weightb=1 / open_gop=0 / weightp=2 / keyint=250 / keyint_min=25 / scenecut=40 / intra_refresh=0 / rc_lookahead=60 / rc=crf / mbtree=1 / crf=20.0 / qcomp=0.60 / qpmin=0 / qpmax=69 / qpstep=4 / ip_ratio=1.40 / aq=1:1.00Language : EnglishEncoded date : UTC 2016-01-23 06:20:57Tagged date : UTC 2016-01-23 06:54:08

AudioID : 2Format : AACFormat/Info : Advanced Audio CodecFormat profile : LCCodec ID : 40Duration : 1h 37mnBit rate mode : VariableBit rate : 128 KbpsMaximum bit rate : 135 KbpsChannel count : 2 channelsChannel positions : Front: L RSampling rate : 48.0 KHzCompression mode : LossyStream size : 89.5 MiB (6%)Language : RussianEncoded date : UTC 2016-01-23 06:26:22Tagged date : UTC 2016-01-23 06:54:08
[url=...39840292] [/url]

Трекер:  [ 23-Янв-2016 09:30 ]

  

Скачать .torrent

Размер .torrent файла 15 KB


Размер: 1.49 GB
Хэш (hash) релиза: 64b2dad639b5f50d804df72cafae8bd325569512

Еще никто не оставлял запись к записи скачать торрент [VIDEO] Иерей-сан. Исповедь самурая . Будь первым!

!Обратная связь