Finding Paradise MULTi13-PLAZA 1 hour | Tapas y pintxos con Thermomix® | Never Let Me Go

Скачать через торрент [VIDEO] Вне времени The Lovers бесплатно русская версия torrent активатор

Статистика раздачи
Размер:  1.66 GB   |    Зарегистрирован:  2 года 5 месяцев   |    .torrent скачан:  23 раза   |   
Раздают:  1  
   
загрузка...
 
Автор Сообщение

Galfimbul

avatar Galfimbul


Вне времени / The Lovers«Жизнь достойна борьбы, любовь достойна смерти»
Год выпуска: 2013
Оригинальное название: The Lovers
Страна: Австралия, Великобритания
Жанр: фэнтези, мелодрама, приключения
Возраст: 16+

Режиссер: Роланд Жоффе

В ролях: Джош Хартнетт, Бипаша Басу, Абхай Деол, Тэмзин Эджертон, Элис Энглерт, Клер ван дер Бом, Махеш Джаду, Симона Кэссел, Темина Санни

Описание: На Большом Барьерном рифе семейную пару постигло страшное несчастье. Археолог-подводник Джей Финнел вместе с женой исследует торговое судно XVIII века, затонувшее при таинственных обстоятельствах. Во время погружения происходит несчастный случай, и жена Джея начинает тонуть. Пытаясь спасти её, он получает серьезное ранение, которое приводит к коме.

Борясь со смертью, герой переступает границы реальности и переносится в Индию 1778 года. В другом, незнакомом ему мире, он начинает жить жизнью британского офицера Джеймса Стюарта, поглощенного страстью к прекрасной женщине. Что же выберет Джей: остаться в мире прошлого и сражаться за любовь воительницы Туладжи или вернуться в реальный мир и бороться за собственную жизнь?

Продолжительность: 01:49:33
Перевод: Дублированный [Лицензия]
Оригинальная дорожка: нет

Автор рипа:

Качество видео: BDRip Исходник: Blu-Ray Remux (1080p) Формат: mp4
Видео кодек: MPEG-4 AVC Аудио кодек: AAC
Видео: 1280x532 at 23.976 fps, AVC at 2 032 kbps avg, 0.124 bit/pixel
Аудио №1 Rus: 48.0 KHz, AAC, 2 ch, 128.0 Kbps
Субтитры: нет
Навигация по главам: нет
[20.01.2016 23:57:44] avs [info]: 1280x532p 1:1 @ 24000/1001 fps (cfr)
[20.01.2016 23:57:44] x264 [info]: using SAR=1/1
[20.01.2016 23:57:44] x264 [info]: using cpu capabilities: MMX2 SSE2Fast SSSE3 Cache64
[20.01.2016 23:57:44] x264 [info]: profile High, level 4.1
[21.01.2016 12:15:31] x264 [info]: frame I:1294 Avg QP:16.36 size: 96691
[21.01.2016 12:15:31] x264 [info]: frame P:31754 Avg QP:19.68 size: 24636
[21.01.2016 12:15:31] x264 [info]: frame B:124464 Avg QP:22.43 size: 6118
[21.01.2016 12:15:31] x264 [info]: consecutive B-frames: 1.3% 1.8% 5.1% 16.4% 20.3% 46.2% 5.4% 1.2% 2.3%
[21.01.2016 12:15:31] x264 [info]: mb I I16..4: 8.0% 71.0% 21.0%
[21.01.2016 12:15:31] x264 [info]: mb P I16..4: 1.2% 8.5% 1.4% P16..4: 43.2% 16.4% 14.0% 0.5% 0.2% skip:14.6%
[21.01.2016 12:15:31] x264 [info]: mb B I16..4: 0.1% 0.8% 0.2% B16..8: 40.9% 5.9% 1.2% direct: 3.5% skip:47.5% L0:44.1% L1:48.7% BI: 7.3%
[21.01.2016 12:15:31] x264 [info]: 8x8 transform intra:74.8% inter:68.9%
[21.01.2016 12:15:31] x264 [info]: direct mvs spatial:99.9% temporal:0.1%
[21.01.2016 12:15:31] x264 [info]: coded y,uvDC,uvAC intra: 74.9% 81.8% 51.9% inter: 16.4% 21.5% 2.7%
[21.01.2016 12:15:31] x264 [info]: i16 v,h,dc,p: 33% 13% 9% 45%
[21.01.2016 12:15:31] x264 [info]: i8 v,h,dc,ddl,ddr,vr,hd,vl,hu: 21% 13% 21% 5% 8% 9% 8% 8% 8%
[21.01.2016 12:15:31] x264 [info]: i4 v,h,dc,ddl,ddr,vr,hd,vl,hu: 37% 11% 11% 5% 8% 8% 7% 6% 6%
[21.01.2016 12:15:31] x264 [info]: i8c dc,h,v,p: 51% 17% 22% 9%
[21.01.2016 12:15:31] x264 [info]: Weighted P-Frames: Y:4.8% UV:2.5%
[21.01.2016 12:15:31] x264 [info]: ref P L0: 49.6% 13.4% 18.3% 5.9% 5.2% 3.6% 3.7% 0.2% 0.0%
[21.01.2016 12:15:31] x264 [info]: ref B L0: 80.1% 10.6% 5.2% 2.4% 1.2% 0.6%
[21.01.2016 12:15:31] x264 [info]: ref B L1: 94.0% 6.0%
[21.01.2016 12:15:31] x264 [info]: kb/s:2032.25
[21.01.2016 12:15:31] encoded 157512 frames, 3.56 fps, 2032.25 kb/s
GeneralComplete name : E:\Vne_vremeni.2013_KinoGadget.mp4Format : MPEG-4Format profile : Base MediaCodec ID : isomFile size : 1.66 GiBDuration : 1h 49mnOverall bit rate mode : VariableOverall bit rate : 2 167 KbpsMovie name : Вне времениPerformer : Роланд ЖоффеGenre : Adventure, RomanceContentType : Short FilmRecorded date : 2013Encoded date : UTC 2016-01-21 16:11:05Tagged date : UTC 2016-01-21 16:24:44Cover : YesContentRating : mpaa|R|400|

LongDescription : На Большом Барьерном рифе семейную пару постигло страшное несчастье. Археолог-подводник Джей Финнел вместе с женой исследует торговое судно XVIII века, затонувшее при таинственных обстоятельствах. Во время погружения происходит несчастный случай, и жена Джея начинает тонуть. Пытаясь спасти её, он получает серьезное ранение, которое приводит к коме.HDVideo : Yes

VideoID : 1Format : AVCFormat/Info : Advanced Video CodecFormat profile : [email protected] settings, CABAC : YesFormat settings, ReFrames : 7 framesCodec ID : avc1Codec ID/Info : Advanced Video CodingDuration : 1h 49mnBit rate : 2 032 KbpsMaximum bit rate : 16.1 MbpsWidth : 1 280 pixelsHeight : 532 pixelsDisplay aspect ratio : 2.40:1Frame rate mode : ConstantFrame rate : 23.976 fpsColor space : YUVChroma subsampling : 4:2:0Bit depth : 8 bitsScan type : ProgressiveBits/(Pixel*Frame) : 0.124Stream size : 1.55 GiB (94%)Writing library : x264 core 148 r2638 7599210Encoding settings : cabac=1 / ref=7 / deblock=1:-1:-1 / analyse=0x3:0x133 / me=umh / subme=7 / psy=1 / psy_rd=1.00:0.15 / mixed_ref=1 / me_range=32 / chroma_me=1 / trellis=2 / 8x8dct=1 / cqm=0 / deadzone=21,11 / fast_pskip=1 / chroma_qp_offset=-3 / threads=3 / lookahead_threads=1 / sliced_threads=0 / nr=0 / decimate=1 / interlaced=0 / bluray_compat=0 / constrained_intra=0 / bframes=8 / b_pyramid=2 / b_adapt=2 / b_bias=0 / direct=3 / weightb=1 / open_gop=0 / weightp=2 / keyint=240 / keyint_min=23 / scenecut=20 / intra_refresh=0 / rc_lookahead=60 / rc=crf / mbtree=1 / crf=20.0 / qcomp=0.60 / qpmin=0 / qpmax=69 / qpstep=4 / ip_ratio=1.40 / aq=1:1.00Language : EnglishEncoded date : UTC 2016-01-21 15:42:59Tagged date : UTC 2016-01-21 16:12:20

AudioID : 2Format : AACFormat/Info : Advanced Audio CodecFormat profile : LCCodec ID : 40Duration : 1h 49mnBit rate mode : VariableBit rate : 128 KbpsMaximum bit rate : 135 KbpsChannel count : 2 channelsChannel positions : Front: L RSampling rate : 48.0 KHzCompression mode : LossyStream size : 100 MiB (6%)Language : RussianEncoded date : UTC 2016-01-21 15:54:26Tagged date : UTC 2016-01-21 16:12:20
[url=...39840292] [/url]

Трекер:  [ 21-Янв-2016 19:00 ]

  

Скачать .torrent

Размер .torrent файла 17 KB


Размер: 1.66 GB
Хэш (hash) релиза: 616189a6d9b32aea3c709195665e5697bfff8e60

Еще никто не оставлял запись к записи скачать торрент [VIDEO] Вне времени The Lovers . Будь первым!

!Обратная связь