OpenLoad VF Dvdrip | Recherche de joueurs. | Gratis download movie

Скачать через торрент [VIDEO] Королевская битва Batoru rowaiaru бесплатно русская версия torrent активатор

Статистика раздачи
Размер:  1.6 GB   |    Зарегистрирован:  2 года 6 месяцев   |    .torrent скачан:  25 раз   |   
Раздают:  1  
   
загрузка...
 
Автор Сообщение

Galfimbul

avatar Galfimbul


Королевская битва / Batoru rowaiaru / Battle Royale
Режиссерская версия / Director's Cut
«Ты когда-нибудь УБИВАЛ своего лучшего ДРУГА?..»

Год выпуска: 2000
Страна: Япония
Жанр: фантастика, боевик, триллер, драма
Продолжительность: 02:01:56
Перевод: Авторский (Одноголосый, закадровый) Андрей Гаврилов
Cубтитры: нет
Режиссеры: Киндзи Фукасаку / Kinji Fukasaku
В ролях: Такеши Китано, Татсуя Фудживара, Аки Маэда, Юко Миямура, Таро Ямамото, Ко Шибасаки, Чиаки Курияма, Соускэ Такаока, Такаши Цукамото, Юкихиро Котани и другие .
Описание: Такого еще не было, но будет! Очень скоро! Родители лишатся работы, а дети выйдя из-под контроля, учинят террор и массовый бойкот взрослым. Ответная мера: «Королевская битва» — санкционированная правительством жестокая игра, в которой неуправляемых школьников заставят участвовать под дулами армейских автоматов.

На необитаемом острове 42 подростка будут 3 дня безжалостно уничтожать друг друга, чтобы победить. Только одному игроку разрешено вернуться на большую землю живым. Невозмутимый распорядитель зловещей игры — школьный учитель Китано. Кровь льется рекой, но учитель Китано гарантирует не только соблюдение условий игры, но и ее условность.

Юные герои гибнут, точь-в-точь как в компьютерной «стрелялке». Вот только мораль фильма не виртуальная. Из безумного электронного будущего она обращена в сегодняшний день.

Фильм снят по одноимённому роману Таками Коусюн.
Режиссёрский вариант фильма имеет хронометраж 122 минуты.

Релиз группы
Качество: HDRip / [url=...3464973]BDRip 720p[/url]
Формат: MP4
Видео кодек: H.264
Аудио кодек: AAC
Видео: 960x540 AR:16/9 1740 kbps 23.976 fps
Аудио: [Русский] 2ch 48 kHz 128 kbps - [VO] Андрей Гаврилов
...last pass...

x264.exe: --pass 2 --bitrate 1740 --preset medium --profile high --level 4.1 --ref 8 --aq-strength 0.7 --deblock 0:1 --merange 32 --bframes 8 --direct auto --b-adapt 2 --trellis 2 --no-fast-pskip --no-dct-decimate --subme 11 --me umh --colorprim bt709 --transfer bt709 --colormatrix bt709 --sar 1:1 --stats "D:\Королевская битва (Battle Royale.DC).2000.BDRip.720p.-CHD.log" --output "D:\Королевская битва (Battle Royale.DC).2000.BDRip.720p.-CHD.mp4" "D:\XVID4PSP 5\Temp\0022.avs"

avs [info]: 960x540p 1:1 @ 2997/125 fps (cfr)
x264 [info]: using SAR=1/1
x264 [info]: using cpu capabilities: MMX2 SSE2Fast SSSE3 SSE4.2 LZCNT
x264 [info]: profile High, level 4.1

x264 [info]: frame I:1220 Avg QP:15.25 size: 62866
x264 [info]: frame P:40002 Avg QP:18.83 size: 19651
x264 [info]: frame B:134196 Avg QP:21.91 size: 5429
x264 [info]: consecutive B-frames: 2.6% 3.7% 8.5% 21.2% 16.6% 37.6% 6.1% 1.8% 1.9%
x264 [info]: mb I I16..4: 9.1% 70.4% 20.6%
x264 [info]: mb P I16..4: 1.0% 8.4% 1.2% P16..4: 36.4% 38.4% 10.7% 0.0% 0.0% skip: 3.9%
x264 [info]: mb B I16..4: 0.1% 1.1% 0.2% B16..8: 39.0% 17.0% 2.1% direct: 2.9% skip:37.7% L0:43.4% L1:49.1% BI: 7.5%
x264 [info]: 8x8 transform intra:78.4% inter:65.1%
x264 [info]: direct mvs spatial:98.5% temporal:1.5%
x264 [info]: coded y,uvDC,uvAC intra: 87.8% 79.6% 42.5% inter: 19.5% 18.2% 5.8%
x264 [info]: i16 v,h,dc,p: 32% 17% 4% 47%
x264 [info]: i8 v,h,dc,ddl,ddr,vr,hd,vl,hu: 7% 6% 2% 11% 17% 16% 16% 13% 13%
x264 [info]: i4 v,h,dc,ddl,ddr,vr,hd,vl,hu: 11% 11% 3% 8% 16% 15% 15% 11% 12%
x264 [info]: i8c dc,h,v,p: 35% 26% 20% 19%
x264 [info]: Weighted P-Frames: Y:2.7% UV:1.0%
x264 [info]: ref P L0: 50.4% 9.2% 17.4% 6.8% 5.4% 4.2% 3.7% 2.4% 0.4% 0.0%
x264 [info]: ref B L0: 76.5% 11.3% 5.7% 2.7% 2.0% 1.2% 0.5%
x264 [info]: ref B L1: 92.0% 8.0%
x264 [info]: kb/s:1740.01

x264 [total]: encoded 175418 frames, 6.58 fps, 1740.01 kb/s

GeneralComplete name : D:\Torrents\Batoru rowaiaru.2000.HDRip.x264.960x.rip by Frost O.S.mp4Format : MPEG-4Format profile : Base MediaCodec ID : isomFile size : 1.60 GiBDuration : 2h 1mnOverall bit rate mode : VariableOverall bit rate : 1 876 KbpsMovie name : Batoru rowaiaru 2000 HDRip x264 960x rip by Frost O SContentType : Short FilmEncoded date : UTC 2016-01-19 11:49:55Tagged date : UTC 2016-01-19 11:52:02Writing application : MkvToMp4 version: 0.224 (x64)Cover : YesComment : rip by Frost O.SLongDescription : Такого еще не было, но будет! Очень скоро! Родители лишатся работы, а дети выйдя из под контроля, учинят террор и массовый бойкот взрослым. Ответная мера: «Королевская битва» — санкционированная правительством жестокая игра, в которой неуправляемых школьников заставят участвовать под дулами армейских автоматов. / На необитаемом острове 42 подростка будут 3 дня безжалостно уничтожать друг друга, чтобы победить. Только одному игроку разрешено вернуться на большую землю живым. Невозмутимый распорядитель зловещей игры — школьный учитель Китано. Свое имя дал герою исполнитель этой роли всемирно известный культовый актер и режиссер Такеши Китано. Кровь льется рекой, но учитель Китано гарантирует не только соблюдение условий игры, но и ее условность. / Юные герои гибнут, точь-в-точь как в компьютерной «стрелялке». Вот только мораль фильма не виртуальная. Из безумного электронного будущего она обращена в сегодняшний день.

VideoID : 1Format : AVCFormat/Info : Advanced Video CodecFormat profile : [email protected] settings, CABAC : YesFormat settings, ReFrames : 8 framesCodec ID : avc1Codec ID/Info : Advanced Video CodingDuration : 2h 1mnBit rate : 1 740 KbpsMaximum bit rate : 16.0 MbpsWidth : 960 pixelsHeight : 540 pixelsDisplay aspect ratio : 16:9Frame rate mode : ConstantFrame rate : 23.976 fpsColor space : YUVChroma subsampling : 4:2:0Bit depth : 8 bitsScan type : ProgressiveBits/(Pixel*Frame) : 0.140Stream size : 1.48 GiB (93%)Writing library : x264 core 130 r2273 b3065e6Encoding settings : cabac=1 / ref=8 / deblock=1:0:1 / analyse=0x3:0x113 / me=umh / subme=11 / psy=1 / psy_rd=1.00:0.00 / mixed_ref=1 / me_range=32 / chroma_me=1 / trellis=2 / 8x8dct=1 / cqm=0 / deadzone=21,11 / fast_pskip=0 / chroma_qp_offset=-2 / threads=3 / lookahead_threads=1 / sliced_threads=0 / nr=0 / decimate=0 / interlaced=0 / bluray_compat=0 / constrained_intra=0 / bframes=8 / b_pyramid=2 / b_adapt=2 / b_bias=0 / direct=3 / weightb=1 / open_gop=0 / weightp=2 / keyint=250 / keyint_min=23 / scenecut=40 / intra_refresh=0 / rc_lookahead=40 / rc=2pass / mbtree=1 / bitrate=1740 / ratetol=1.0 / qcomp=0.60 / qpmin=0 / qpmax=69 / qpstep=4 / cplxblur=20.0 / qblur=0.5 / ip_ratio=1.40 / aq=1:0.70Language : EnglishEncoded date : UTC 2016-01-19 11:49:55Tagged date : UTC 2016-01-19 11:50:39Color primaries : BT.709Transfer characteristics : BT.709Matrix coefficients : BT.709Color range : Limited

AudioID : 2Format : AACFormat/Info : Advanced Audio CodecFormat profile : LCCodec ID : 40Duration : 2h 1mnBit rate mode : VariableBit rate : 128 KbpsMaximum bit rate : 132 KbpsChannel(s) : 2 channelsChannel positions : Front: L RSampling rate : 48.0 KHzCompression mode : LossyStream size : 112 MiB (7%)Title : _VO_ Gavrilov / _VO_ GavrilovLanguage : RussianEncoded date : UTC 2016-01-19 11:50:21Tagged date : UTC 2016-01-19 11:50:39


Трекер:  [ 21-Янв-2016 15:30 ]

  

Скачать .torrent

Размер .torrent файла 16 KB


Размер: 1.6 GB
Хэш (hash) релиза: 5c0f94705b15fb3892655014f17370d00e43e568

Еще никто не оставлял запись к записи скачать торрент [VIDEO] Королевская битва Batoru rowaiaru . Будь первым!

!Обратная связь