مشاهدة المزيد من المواضيع المختارة | Marvel's Inhumans saison 1 épisode 6 | Download

Скачать через торрент [VIDEO] Королевская битва Batoru rowaiaru бесплатно русская версия torrent активатор

Статистика раздачи
Размер:  528 MB   |    Зарегистрирован:  2 года 6 месяцев   |    .torrent скачан:  19 раз   |   
Раздают:  1  
   
загрузка...
 
Автор Сообщение

Galfimbul

avatar Galfimbul


Королевская битва / Batoru rowaiaru / Battle Royale
Режиссерская версия / Director's Cut
«Ты когда-нибудь УБИВАЛ своего лучшего ДРУГА?..»

Год выпуска: 2000
Страна: Япония
Жанр: фантастика, боевик, триллер, драма
Продолжительность: 02:01:56
Перевод: Авторский (Одноголосый, закадровый) Андрей Гаврилов
Cубтитры: нет
Режиссеры: Киндзи Фукасаку / Kinji Fukasaku
В ролях: Такеши Китано, Татсуя Фудживара, Аки Маэда, Юко Миямура, Таро Ямамото, Ко Шибасаки, Чиаки Курияма, Соускэ Такаока, Такаши Цукамото, Юкихиро Котани и другие .
Описание: Такого еще не было, но будет! Очень скоро! Родители лишатся работы, а дети выйдя из-под контроля, учинят террор и массовый бойкот взрослым. Ответная мера: «Королевская битва» — санкционированная правительством жестокая игра, в которой неуправляемых школьников заставят участвовать под дулами армейских автоматов.

На необитаемом острове 42 подростка будут 3 дня безжалостно уничтожать друг друга, чтобы победить. Только одному игроку разрешено вернуться на большую землю живым. Невозмутимый распорядитель зловещей игры — школьный учитель Китано. Кровь льется рекой, но учитель Китано гарантирует не только соблюдение условий игры, но и ее условность.

Юные герои гибнут, точь-в-точь как в компьютерной «стрелялке». Вот только мораль фильма не виртуальная. Из безумного электронного будущего она обращена в сегодняшний день.

Фильм снят по одноимённому роману Таками Коусюн.
Режиссёрский вариант фильма имеет хронометраж 122 минуты.

Релиз группы
Качество: HDRip / [url=...3464973]BDRip 720p[/url]
Формат: MP4
Видео кодек: XviD
Аудио кодек: AAC
Видео: 480x272 AR:16/9 470 kbps 23.976 fps
Аудио: [Русский] 2ch 48 kHz 128 kbps - [VO] Андрей Гаврилов
GeneralComplete name : D:\Torrents\Batoru rowaiaru.2000.HDRip.XviD.480x.rip by Frost O.S.mp4Format : MPEG-4Format profile : Base MediaCodec ID : isomFile size : 528 MiBDuration : 2h 1mnOverall bit rate mode : VariableOverall bit rate : 605 KbpsMovie name : Batoru rowaiaru 2000 HDRip XviD 480x rip by Frost O SContentType : Short FilmEncoded date : UTC 2016-01-19 11:55:32Tagged date : UTC 2016-01-19 11:55:58Writing application : MkvToMp4 version: 0.224 (x64)Cover : YesComment : rip by Frost O.SLongDescription : / / / Такого еще не было, но будет! Очень скоро! Родители лишатся работы, а дети выйдя из-под контроля, учинят террор и массовый бойкот взрослым. Ответная мера: «Королевская битва» — санкционированная правительством жестокая игра, в которой неуправляемых школьников заставят участвовать под дулами армейских автоматов. / / На необитаемом острове 42 подростка будут 3 дня безжалостно уничтожать друг друга, чтобы победить. Только одному игроку разрешено вернуться на большую землю живым. Невозмутимый распорядитель зловещей игры — школьный учитель Китано. Кровь льется рекой, но учитель Китано гарантирует не только соблюдение условий игры, но и ее условность. / / Юные герои гибнут, точь-в-точь как в компьютерной «стрелялке». Вот только мораль фильма не виртуальная. Из безумного электронного будущего она обращена в сегодняшний день. / /

VideoID : 1Format : MPEG-4 VisualFormat profile : Advanced [email protected] settings, BVOP : YesFormat settings, QPel : NoFormat settings, GMC : No warppointsFormat settings, Matrix : CustomCodec ID : 20Duration : 2h 1mnBit rate mode : VariableBit rate : 470 KbpsMaximum bit rate : 6 437 KbpsWidth : 480 pixelsHeight : 272 pixelsDisplay aspect ratio : 16:9Frame rate mode : ConstantFrame rate : 23.976 fpsColor space : YUVChroma subsampling : 4:2:0Bit depth : 8 bitsScan type : ProgressiveCompression mode : LossyBits/(Pixel*Frame) : 0.150Stream size : 410 MiB (78%)Writing library : XviD 1.2.1 (UTC 2008-12-04)Language : EnglishTagged date : UTC 2016-01-19 11:55:39

AudioID : 2Format : AACFormat/Info : Advanced Audio CodecFormat profile : LCCodec ID : 40Duration : 2h 1mnBit rate mode : VariableBit rate : 128 KbpsMaximum bit rate : 132 KbpsChannel(s) : 2 channelsChannel positions : Front: L RSampling rate : 48.0 KHzCompression mode : LossyStream size : 112 MiB (21%)Title : _VO_ Gavrilov / _VO_ GavrilovLanguage : RussianEncoded date : UTC 2016-01-19 11:55:35Tagged date : UTC 2016-01-19 11:55:39


Трекер:  [ 21-Янв-2016 15:30 ]

  

Скачать .torrent

Размер .torrent файла 11 KB


Размер: 528 MB
Хэш (hash) релиза: 4676beeb239b03297174c122ad991ab6b50b00d2

Еще никто не оставлял запись к записи скачать торрент [VIDEO] Королевская битва Batoru rowaiaru . Будь первым!

!Обратная связь