Basada en hechos reales | Siming Yang | Smultron 10.1.2 macOS

Скачать через торрент [VIDEO] Утешение Solace бесплатно русская версия torrent активатор

Статистика раздачи
Размер:  1.8 GB   |    Зарегистрирован:  2 года 5 месяцев   |    .torrent скачан:  24 раза   |   
Раздают:  1  
   
загрузка...
 
Автор Сообщение

Galfimbul

avatar Galfimbul


Утешение / Solace

Год выпуска: 2015
Оригинальное название: Solace
Страна: США
Жанр: триллер, детектив
Возраст: 18+

Режиссер: Афонсо Пойарт

В ролях: Джеффри Дин Морган, Колин Фаррелл, Энтони Хопкинс, Эбби Корниш, Марли Шелтон, Джанин Тёрнер, Ксандер Беркли, Кенни Джонсон, Хосе Пабло Кантилльо, Джошуа Клоуз

Описание: Напарники, Джо и Кэтрин, детективы из ФБР расследуют череду загадочных убийств. Все преступления объединяет нечто сверхъестественное — серийный убийца всегда на шаг впереди лучших сыщиков. Тогда на помощь правосудию приходит отставной аналитик спецслужб доктор Джон Кленси. Его исключительная интуиция и интеллект могут помочь поймать убийцу, но вскоре Джон понимает — его соперник значительно превосходит его в способностях.

Продолжительность: 01:41:12
Перевод: Любительский двухголосый [Parovoz Production]
Оригинальная дорожка: нет

Автор рипа:

Качество видео: BDRip Исходник: Blu-Ray Remux (1080p) Формат: mp4
Видео кодек: MPEG-4 AVC Аудио кодек: AAC
Видео: 1280x532 at 23.976 fps, AVC at 2 418 kbps avg, 0.148 bit/pixel
Аудио №1 Rus: 48.0 KHz, AAC, 2 ch, 128.0 Kbps
Субтитры: нет
Навигация по главам: нет
[19.01.2016 23:02:11] avs [info]: 1280x532p 1:1 @ 24000/1001 fps (cfr)
[19.01.2016 23:02:12] x264 [info]: using SAR=1/1
[19.01.2016 23:02:12] x264 [info]: using cpu capabilities: MMX2 SSE2Fast SSSE3 Cache64
[19.01.2016 23:02:12] x264 [info]: profile High, level 4.1
[20.01.2016 15:00:45] x264 [info]: frame I:1085 Avg QP:13.92 size: 89283
[20.01.2016 15:00:46] x264 [info]: frame P:29415 Avg QP:17.29 size: 23767
[20.01.2016 15:00:46] x264 [info]: frame B:115076 Avg QP:17.24 size: 9028
[20.01.2016 15:00:46] x264 [info]: consecutive B-frames: 2.2% 2.3% 7.1% 11.3% 13.9% 47.9% 6.0% 1.1% 2.1% 0.8% 1.3% 0.9% 1.1% 0.4% 0.5% 0.2% 1.0%
[20.01.2016 15:00:46] x264 [info]: mb I I16..4: 18.8% 61.0% 20.2%
[20.01.2016 15:00:46] x264 [info]: mb P I16..4: 3.9% 18.7% 2.4% P16..4: 37.9% 15.2% 9.9% 0.3% 0.1% skip:11.6%
[20.01.2016 15:00:46] x264 [info]: mb B I16..4: 0.4% 2.1% 0.2% B16..8: 39.5% 6.9% 1.1% direct: 8.4% skip:41.5% L0:44.8% L1:49.9% BI: 5.3%
[20.01.2016 15:00:46] x264 [info]: 8x8 transform intra:74.1% inter:68.6%
[20.01.2016 15:00:46] x264 [info]: direct mvs spatial:99.5% temporal:0.5%
[20.01.2016 15:00:46] x264 [info]: coded y,uvDC,uvAC intra: 71.9% 69.8% 41.2% inter: 21.1% 23.9% 2.0%
[20.01.2016 15:00:46] x264 [info]: i16 v,h,dc,p: 31% 14% 15% 39%
[20.01.2016 15:00:46] x264 [info]: i8 v,h,dc,ddl,ddr,vr,hd,vl,hu: 17% 13% 38% 4% 5% 5% 6% 5% 6%
[20.01.2016 15:00:46] x264 [info]: i4 v,h,dc,ddl,ddr,vr,hd,vl,hu: 36% 16% 17% 5% 6% 5% 6% 4% 4%
[20.01.2016 15:00:46] x264 [info]: i8c dc,h,v,p: 58% 19% 19% 5%
[20.01.2016 15:00:46] x264 [info]: Weighted P-Frames: Y:3.7% UV:1.7%
[20.01.2016 15:00:46] x264 [info]: ref P L0: 50.0% 10.7% 16.5% 7.2% 5.3% 4.2% 3.3% 2.5% 0.3% 0.0%
[20.01.2016 15:00:46] x264 [info]: ref B L0: 75.7% 11.5% 5.9% 2.9% 2.4% 1.1% 0.5%
[20.01.2016 15:00:46] x264 [info]: ref B L1: 92.1% 7.9%
[20.01.2016 15:00:46] x264 [info]: kb/s:2417.66
[20.01.2016 15:00:46] encoded 145576 frames, 2.53 fps, 2417.66 kb/s
GeneralComplete name : E:\Uteshenie.2015_KinoGadget.mp4Format : MPEG-4Format profile : Base MediaCodec ID : isomFile size : 1.80 GiBDuration : 1h 41mnOverall bit rate mode : VariableOverall bit rate : 2 553 KbpsMovie name : УтешениеPerformer : Афонсо ПойартGenre : Mystery, ThrillerContentType : Short FilmRecorded date : 2015Encoded date : UTC 2016-01-20 19:25:42Tagged date : UTC 2016-01-20 19:33:12Cover : YesContentRating : mpaa|R|400|

LongDescription : Напарники, Джо и Кэтрин, детективы из ФБР расследуют череду загадочных убийств. Все преступления объединяет нечто сверхъестественное — серийный убийца всегда на шаг впереди лучших сыщиков. Тогда на помощь правосудию приходит отставной аналитик спецслужб доктор Джон Кленси. Его исключительная интуиция и интеллект могут помочь поймать убийцу, но вскоре Джон понимает — его соперник значительно превосходит его в способностях.HDVideo : Yes

VideoID : 1Format : AVCFormat/Info : Advanced Video CodecFormat profile : [email protected] settings, CABAC : YesFormat settings, ReFrames : 8 framesCodec ID : avc1Codec ID/Info : Advanced Video CodingDuration : 1h 41mnBit rate : 2 418 KbpsMaximum bit rate : 11.5 MbpsWidth : 1 280 pixelsHeight : 532 pixelsDisplay aspect ratio : 2.40:1Frame rate mode : ConstantFrame rate : 23.976 fpsColor space : YUVChroma subsampling : 4:2:0Bit depth : 8 bitsScan type : ProgressiveBits/(Pixel*Frame) : 0.148Stream size : 1.71 GiB (95%)Writing library : x264 core 148 r2638 7599210Encoding settings : cabac=1 / ref=8 / deblock=1:-1:-1 / analyse=0x3:0x133 / me=umh / subme=7 / psy=1 / psy_rd=1.00:0.15 / mixed_ref=1 / me_range=16 / chroma_me=1 / trellis=2 / 8x8dct=1 / cqm=0 / deadzone=21,11 / fast_pskip=1 / chroma_qp_offset=-3 / threads=3 / lookahead_threads=1 / sliced_threads=0 / nr=0 / decimate=1 / interlaced=0 / bluray_compat=0 / constrained_intra=0 / bframes=16 / b_pyramid=2 / b_adapt=2 / b_bias=0 / direct=3 / weightb=1 / open_gop=0 / weightp=2 / keyint=240 / keyint_min=23 / scenecut=40 / intra_refresh=0 / rc_lookahead=60 / rc=crf / mbtree=1 / crf=20.0 / qcomp=0.60 / qpmin=0 / qpmax=69 / qpstep=4 / ip_ratio=1.40 / aq=1:1.50Language : EnglishEncoded date : UTC 2016-01-20 19:21:09Tagged date : UTC 2016-01-20 19:27:01

AudioID : 2Format : AACFormat/Info : Advanced Audio CodecFormat profile : LCCodec ID : 40Duration : 1h 41mnBit rate mode : VariableBit rate : 128 KbpsMaximum bit rate : 134 KbpsChannel count : 2 channelsChannel positions : Front: L RSampling rate : 48.0 KHzCompression mode : LossyStream size : 92.7 MiB (5%)Language : RussianEncoded date : UTC 2016-01-19 18:48:40Tagged date : UTC 2016-01-20 19:27:01
[url=...39840292] [/url]

Трекер:  [ 20-Янв-2016 19:30 ]

  

Скачать .torrent

Размер .torrent файла 18 KB


Размер: 1.8 GB
Хэш (hash) релиза: f6334e7658fc83dd85e6cb75b2ddc59a53ab205d

Еще никто не оставлял запись к записи скачать торрент [VIDEO] Утешение Solace . Будь первым!

!Обратная связь