приключения | The Good Doctor | Том Сайзмор

Скачать через торрент [VIDEO] 13 грехов 13 Sins бесплатно русская версия torrent активатор

Статистика раздачи
Размер:  1.95 GB   |    Зарегистрирован:  2 года 6 месяцев   |    .torrent скачан:  20 раз   |   
Раздают:  1  
   
загрузка...
 
Автор Сообщение

Galfimbul

avatar Galfimbul


13 грехов / 13 Sins«Играешь не ты, играют тобой»
Год выпуска: 2014
Оригинальное название: 13 Sins
Страна: США
Жанр: триллер, ужасы
Возраст: 16+

Режиссер: Даниэль Штамм

В ролях: Марк Веббер, Рутина Уэсли, Девон Грайе, Прюитт Тейлор Винс, Том Бауэр, Рон Перлман, Клайд Джонс, Денин Тайлер, Грег Пирсон, Ричи Монтгомери

Описание: Эллиот Бриндл — умный кроткий сотрудник службы социального обеспечения, тонущий в долгах. Всё меняется, когда раздаётся телефонный звонок. Парню сообщают, что он становится участником ТВ-шоу, условия простые — выполнить 13 заданий, какими бы странными они ни были; на кону — денежный приз, сумма которого увеличивается с каждым выполненным заданием. Эллиот следует первым инструкциям и с лёгкостью съедает пойманную муху. Вскоре Эллиот хочет, но не может прекратить игру, хотя задачи становятся более опасными, а точка невозврата скоро будет пройдена.

Продолжительность: 01:32:21
Перевод: Дублированный [НТВ+ Пифагор]
Оригинальная дорожка: нет

Автор рипа:

Качество видео: BDRip Исходник: Blu-Ray Remux (1080p) Формат: mp4
Видео кодек: MPEG-4 AVC Аудио кодек: AAC
Видео: 1280x534 at 23.976 fps, AVC at 2 883 kbps avg, 0.176 bit/pixel
Аудио №1 Rus: 48.0 KHz, AAC, 2 ch, 128.0 Kbps
Субтитры: нет
Навигация по главам: нет
[18.01.2016 20:51:19] avs [info]: 1280x534p 1:1 @ 24000/1001 fps (cfr)
[18.01.2016 20:51:19] x264 [info]: using SAR=1/1
[18.01.2016 20:51:19] x264 [info]: using cpu capabilities: MMX2 SSE2Fast SSSE3 Cache64
[18.01.2016 20:51:19] x264 [info]: profile High, level 4.1
[19.01.2016 12:07:21] x264 [info]: frame I:1069 Avg QP:14.72 size:107896
[19.01.2016 12:07:23] x264 [info]: frame P:26021 Avg QP:17.92 size: 30361
[19.01.2016 12:07:23] x264 [info]: frame B:105749 Avg QP:18.56 size: 10321
[19.01.2016 12:07:23] x264 [info]: consecutive B-frames: 1.6% 1.4% 6.8% 10.7% 16.7% 49.7% 5.6% 1.6% 2.8% 0.7% 0.5% 0.6% 0.4% 0.4% 0.5%
[19.01.2016 12:07:23] x264 [info]: mb I I16..4: 17.1% 60.5% 22.4%
[19.01.2016 12:07:23] x264 [info]: mb P I16..4: 1.8% 12.5% 1.3% P16..4: 41.8% 19.1% 14.0% 0.3% 0.1% skip: 9.1%
[19.01.2016 12:07:23] x264 [info]: mb B I16..4: 0.1% 1.7% 0.1% B16..8: 43.4% 7.4% 1.5% direct: 5.6% skip:40.3% L0:45.2% L1:49.3% BI: 5.5%
[19.01.2016 12:07:23] x264 [info]: 8x8 transform intra:79.8% inter:64.2%
[19.01.2016 12:07:23] x264 [info]: direct mvs spatial:99.8% temporal:0.2%
[19.01.2016 12:07:23] x264 [info]: coded y,uvDC,uvAC intra: 83.1% 85.9% 70.0% inter: 22.0% 25.4% 7.9%
[19.01.2016 12:07:23] x264 [info]: i16 v,h,dc,p: 44% 10% 17% 29%
[19.01.2016 12:07:23] x264 [info]: i8 v,h,dc,ddl,ddr,vr,hd,vl,hu: 18% 9% 39% 4% 6% 6% 5% 6% 6%
[19.01.2016 12:07:23] x264 [info]: i4 v,h,dc,ddl,ddr,vr,hd,vl,hu: 30% 14% 16% 6% 8% 8% 7% 6% 5%
[19.01.2016 12:07:23] x264 [info]: i8c dc,h,v,p: 62% 14% 18% 6%
[19.01.2016 12:07:23] x264 [info]: Weighted P-Frames: Y:2.6% UV:1.2%
[19.01.2016 12:07:23] x264 [info]: ref P L0: 46.0% 11.2% 18.5% 7.0% 6.1% 4.3% 4.1% 2.6% 0.2% 0.0%
[19.01.2016 12:07:23] x264 [info]: ref B L0: 75.8% 11.2% 5.8% 3.1% 2.3% 1.3% 0.5%
[19.01.2016 12:07:23] x264 [info]: ref B L1: 92.9% 7.1%
[19.01.2016 12:07:23] x264 [info]: kb/s:2883.18
[19.01.2016 12:07:23] encoded 132839 frames, 2.42 fps, 2883.18 kb/s
GeneralComplete name : E:\13_grexov.2014_KinoGadget.mp4Format : MPEG-4Format profile : Base MediaCodec ID : isomFile size : 1.95 GiBDuration : 1h 32mnOverall bit rate mode : VariableOverall bit rate : 3 019 KbpsMovie name : 13 греховPerformer : Даниэль ШтаммGenre : Horror, ThrillerContentType : Short FilmRecorded date : 2014Encoded date : UTC 2016-01-19 15:53:59Tagged date : UTC 2016-01-19 16:01:58Cover : YesContentRating : mpaa|R|400|

LongDescription : Эллиот Бриндл — умный кроткий сотрудник службы социального обеспечения, тонущий в долгах. Всё меняется, когда раздаётся телефонный звонок. Парню сообщают, что он становится участником ТВ-шоу, условия простые — выполнить 13 заданий, какими бы странными они ни были; на кону — денежный приз, сумма которого увеличивается с каждым выполненным заданием. Эллиот следует первым инструкциям и с лёгкостью съедает пойманную муху. Вскоре Эллиот хочет, но не может прекратить игру, хотя задачи становятся более опасными, а точка невозврата скоро будет пройдена.HDVideo : Yes

VideoID : 1Format : AVCFormat/Info : Advanced Video CodecFormat profile : [email protected] settings, CABAC : YesFormat settings, ReFrames : 8 framesCodec ID : avc1Codec ID/Info : Advanced Video CodingDuration : 1h 32mnBit rate : 2 883 KbpsMaximum bit rate : 14.0 MbpsWidth : 1 280 pixelsHeight : 534 pixelsDisplay aspect ratio : 2.40:1Frame rate mode : ConstantFrame rate : 23.976 fpsColor space : YUVChroma subsampling : 4:2:0Bit depth : 8 bitsScan type : ProgressiveBits/(Pixel*Frame) : 0.176Stream size : 1.86 GiB (95%)Writing library : x264 core 148 r2638 7599210Encoding settings : cabac=1 / ref=8 / deblock=1:-1:-1 / analyse=0x3:0x133 / me=umh / subme=7 / psy=1 / psy_rd=1.00:0.15 / mixed_ref=1 / me_range=16 / chroma_me=1 / trellis=2 / 8x8dct=1 / cqm=0 / deadzone=21,11 / fast_pskip=1 / chroma_qp_offset=-3 / threads=3 / lookahead_threads=1 / sliced_threads=0 / nr=0 / decimate=1 / interlaced=0 / bluray_compat=0 / constrained_intra=0 / bframes=14 / b_pyramid=2 / b_adapt=2 / b_bias=0 / direct=3 / weightb=1 / open_gop=0 / weightp=2 / keyint=240 / keyint_min=23 / scenecut=40 / intra_refresh=0 / rc_lookahead=60 / rc=crf / mbtree=1 / crf=20.0 / qcomp=0.60 / qpmin=0 / qpmax=69 / qpstep=4 / ip_ratio=1.40 / aq=1:1.50Language : EnglishEncoded date : UTC 2016-01-19 15:49:47Tagged date : UTC 2016-01-19 15:55:20

AudioID : 2Format : AACFormat/Info : Advanced Audio CodecFormat profile : LCCodec ID : 40Duration : 1h 32mnBit rate mode : VariableBit rate : 128 KbpsMaximum bit rate : 134 KbpsChannel count : 2 channelsChannel positions : Front: L RSampling rate : 48.0 KHzCompression mode : LossyStream size : 84.5 MiB (4%)Language : RussianEncoded date : UTC 2016-01-19 15:43:26Tagged date : UTC 2016-01-19 15:55:20
[url=...39840292] [/url]

Трекер:  [ 19-Янв-2016 18:30 ]

  

Скачать .torrent

Размер .torrent файла 20 KB


Размер: 1.95 GB
Хэш (hash) релиза: a7ac5f6d9d6c0f12ea0d04b8c54f63c6f89e9d33

Еще никто не оставлял запись к записи скачать торрент [VIDEO] 13 грехов 13 Sins . Будь первым!

!Обратная связь