Evil Genius: The True Story of American’s Most Diabolical Bank Heist – Season 1 | Mr Robot S03E04 HDTV x264 SVA eztv mkv | Romance(5711)

Скачать через торрент [VIDEO] Ужастики Goosebumps бесплатно русская версия torrent активатор

Статистика раздачи
Размер:  1.82 GB   |    Зарегистрирован:  2 года 5 месяцев   |    .torrent скачан:  21 раз   |   
Раздают:  1  
   
загрузка...
 
Автор Сообщение

Galfimbul

avatar Galfimbul


Ужастики / Goosebumps«The stories are alive»
Год выпуска: 2015
Оригинальное название: Goosebumps
Страна: США, Австралия
Жанр: фэнтези, комедия, приключения
Возраст: 12+

Режиссер: Роб Леттерман

В ролях: Дилан Миннетт, Одейя Раш, Эми Райан, Райан Ли, Джиллиан Белл, Джек Блэк, Кен Марино, Холстон Сейдж, Стивен Крюгер, Кит А. Болден, Аманда Ланд, Тимоти С. Саймонс, Каран Сони, Р.Л. Стайн, Калеб Эмери, Габриэла Фрайле, Нэйт Андраде, Шелдон Браун, Мелисса Брюэр, Маршалл Чока

Описание: Кошмары бывают разные. Вечно голодные оборотни, плохо воспитанные зомби, агрессивные садовые гномы и даже гигантский неуравновешенный снежный человек…

Все эти фантастические монстры и монстрики многие годы магическим образом удерживались на страницах знаменитых бестселлеров «Ужастики», пока по воле случая их не выпустили на свободу в реальный мир.

Продолжительность: 01:43:17
Перевод: Дублированный [iTunes]
Оригинальная дорожка: нет

Автор рипа:

Качество видео: BDRip Исходник: Blu-Ray Remux (1080p) Формат: mp4
Видео кодек: MPEG-4 AVC Аудио кодек: AAC
Видео: 1280x536 at 23.976 fps, AVC at 2 390 kbps avg, 0.145 bit/pixel
Аудио №1 Rus: 48.0 KHz, AAC, 2 ch, 128.0 Kbps
Субтитры: нет
Навигация по главам: нет
[18.01.2016 14:54:01] x264 [info]: frame I:1427 Avg QP:14.36 size: 87156
[18.01.2016 14:54:01] x264 [info]: frame P:34651 Avg QP:17.77 size: 23856
[18.01.2016 14:54:01] x264 [info]: frame B:112482 Avg QP:18.46 size: 8005
[18.01.2016 14:54:01] x264 [info]: consecutive B-frames: 2.8% 3.3% 7.8% 33.3% 15.9% 26.2% 4.6% 3.9% 1.1% 0.3% 0.4% 0.5% 0.1%
[18.01.2016 14:54:01] x264 [info]: mb I I16..4: 7.5% 76.8% 15.7%
[18.01.2016 14:54:01] x264 [info]: mb P I16..4: 2.9% 15.8% 1.6% P16..4: 42.3% 17.5% 12.6% 0.3% 0.1% skip: 6.8%
[18.01.2016 14:54:01] x264 [info]: mb B I16..4: 0.2% 1.4% 0.1% B16..8: 43.0% 8.5% 1.4% direct: 5.5% skip:39.8% L0:43.5% L1:49.9% BI: 6.6%
[18.01.2016 14:54:01] x264 [info]: 8x8 transform intra:78.0% inter:71.4%
[18.01.2016 14:54:01] x264 [info]: direct mvs spatial:99.9% temporal:0.1%
[18.01.2016 14:54:01] x264 [info]: coded y,uvDC,uvAC intra: 74.6% 84.8% 61.9% inter: 19.0% 24.9% 4.6%
[18.01.2016 14:54:01] x264 [info]: i16 v,h,dc,p: 30% 14% 11% 45%
[18.01.2016 14:54:01] x264 [info]: i8 v,h,dc,ddl,ddr,vr,hd,vl,hu: 19% 14% 26% 5% 7% 8% 7% 7% 7%
[18.01.2016 14:54:01] x264 [info]: i4 v,h,dc,ddl,ddr,vr,hd,vl,hu: 26% 17% 18% 6% 9% 8% 7% 6% 5%
[18.01.2016 14:54:01] x264 [info]: i8c dc,h,v,p: 52% 18% 20% 10%
[18.01.2016 14:54:01] x264 [info]: Weighted P-Frames: Y:6.6% UV:4.7%
[18.01.2016 14:54:01] x264 [info]: ref P L0: 51.4% 9.6% 16.3% 6.9% 5.2% 4.6% 3.3% 2.2% 0.4% 0.0%
[18.01.2016 14:54:01] x264 [info]: ref B L0: 78.4% 10.5% 5.0% 2.4% 2.1% 1.1% 0.5%
[18.01.2016 14:54:01] x264 [info]: ref B L1: 93.4% 6.6%
[18.01.2016 14:54:01] x264 [info]: kb/s:2390.33
[18.01.2016 14:54:01] encoded 148560 frames, 2.74 fps, 2390.33 kb/s
GeneralComplete name : E:\Uzhastiki.2015_KinoGadget.mp4Format : MPEG-4Format profile : Base MediaCodec ID : isomFile size : 1.82 GiBDuration : 1h 43mnOverall bit rate mode : VariableOverall bit rate : 2 526 KbpsMovie name : УжастикиPerformer : Роб ЛеттерманGenre : Adventure, ComedyContentType : Short FilmRecorded date : 2015Encoded date : UTC 2016-01-18 15:35:33Tagged date : UTC 2016-01-18 15:57:25Cover : YesContentRating : mpaa|PG|200|

LongDescription : Кошмары бывают разные. Вечно голодные оборотни, плохо воспитанные зомби, агрессивные садовые гномы и даже гигантский неуравновешенный снежный человек… / / Все эти фантастические монстры и монстрики многие годы магическим образом удерживались на страницах знаменитых бестселлеров «Ужастики», пока по воле случая их не выпустили на свободу в реальный мир.HDVideo : Yes

VideoID : 1Format : AVCFormat/Info : Advanced Video CodecFormat profile : [email protected] settings, CABAC : YesFormat settings, ReFrames : 8 framesCodec ID : avc1Codec ID/Info : Advanced Video CodingDuration : 1h 43mnBit rate : 2 390 KbpsMaximum bit rate : 11.0 MbpsWidth : 1 280 pixelsHeight : 536 pixelsDisplay aspect ratio : 2.40:1Frame rate mode : ConstantFrame rate : 23.976 fpsColor space : YUVChroma subsampling : 4:2:0Bit depth : 8 bitsScan type : ProgressiveBits/(Pixel*Frame) : 0.145Stream size : 1.72 GiB (95%)Writing library : x264 core 148 r2638 7599210Encoding settings : cabac=1 / ref=8 / deblock=1:-1:-1 / analyse=0x3:0x133 / me=umh / subme=7 / psy=1 / psy_rd=1.00:0.15 / mixed_ref=1 / me_range=16 / chroma_me=1 / trellis=2 / 8x8dct=1 / cqm=0 / deadzone=21,11 / fast_pskip=1 / chroma_qp_offset=-3 / threads=3 / lookahead_threads=1 / sliced_threads=0 / nr=0 / decimate=1 / interlaced=0 / bluray_compat=0 / constrained_intra=0 / bframes=12 / b_pyramid=2 / b_adapt=2 / b_bias=0 / direct=3 / weightb=1 / open_gop=0 / weightp=2 / keyint=240 / keyint_min=23 / scenecut=40 / intra_refresh=0 / rc_lookahead=60 / rc=crf / mbtree=1 / crf=20.0 / qcomp=0.60 / qpmin=0 / qpmax=69 / qpstep=4 / ip_ratio=1.40 / aq=1:1.50Language : EnglishEncoded date : UTC 2016-01-18 14:45:12Tagged date : UTC 2016-01-18 15:36:47

AudioID : 2Format : AACFormat/Info : Advanced Audio CodecFormat profile : LCCodec ID : 40Duration : 1h 43mnBit rate mode : VariableBit rate : 128 KbpsMaximum bit rate : 135 KbpsChannel count : 2 channelsChannel positions : Front: L RSampling rate : 48.0 KHzCompression mode : LossyStream size : 94.5 MiB (5%)Language : RussianEncoded date : UTC 2016-01-18 14:44:37Tagged date : UTC 2016-01-18 15:36:47
[url=...39840292] [/url]

Трекер:  [ 18-Янв-2016 18:30 ]

  

Скачать .torrent

Размер .torrent файла 18 KB


Размер: 1.82 GB
Хэш (hash) релиза: fbc66cdadbeba0d291ecaffffd2ce5d7699350a8

Еще никто не оставлял запись к записи скачать торрент [VIDEO] Ужастики Goosebumps . Будь первым!

!Обратная связь