The Profit S05E14 WEB x264-TBS [eztv] | 1x11 Luis Miguel: La Serie | Фентези

Скачать через торрент [VIDEO] Воздушный маршал Non-Stop бесплатно русская версия torrent активатор

Статистика раздачи
Размер:  1.41 GB   |    Зарегистрирован:  2 года 6 месяцев   |    .torrent скачан:  25 раз   |   
Раздают:  1  
   
загрузка...
 
Автор Сообщение

Galfimbul

avatar Galfimbul


Воздушный маршал / Non-Stop«Захват самолёта - это только начало»
Год выпуска: 2014
Оригинальное название: Non-Stop
Страна: Великобритания, Франция, США
Жанр: детектив, триллер, боевик
Возраст: 12+

Режиссер: Хауме Кольет-Серра

В ролях: Лиам Нисон, Джулианна Мур, Скут МакНэйри, Мишель Докери, Нэйт Паркер, Кори Столл, Лупита Нионго, Омар Метуолли, Джейсон Батлер Харнер, Лайнас Роуч

Описание: Межконтинентальный авиарейс. Билл Маркс, воздушный маршал, который обеспечивает безопасность пассажиров, получает сообщения с угрозами от маньяка-террориста. Преступник просчитал все ходы и подставил под обвинение самого спецагента. Теперь Маркс — цель спецслужб США. Ему остается одно: вычислить и обезвредить преступника, спасти пассажиров и свою любовь, которую он обретает на краю гибели. До взрыва остаются считанные минуты…

Продолжительность: 01:46:02
Перевод: Дублированный
Оригинальная дорожка: нет

Автор рипа:

Качество видео: BDRip Исходник: Blu-Ray Remux (1080p) Формат: mp4
Видео кодек: MPEG-4 AVC Аудио кодек: AAC
Видео: 1280x536 at 24.000 fps, AVC at 1 767 kbps avg, 0.107 bit/pixel
Аудио №1 Rus: 48.0 KHz, AAC, 2 ch, 128.0 Kbps
Субтитры: нет
Навигация по главам: нет
GeneralComplete name : E:\Vozdushnyj_marshal.2014_KinoGadget.mp4Format : MPEG-4Format profile : Base MediaCodec ID : isomFile size : 1.41 GiBDuration : 1h 46mnOverall bit rate mode : VariableOverall bit rate : 1 902 KbpsMovie name : Воздушный маршалPerformer : Хауме Кольет-СерраGenre : Action, Mystery, ThrillerContentType : Short FilmRecorded date : 2014Encoded date : UTC 2016-01-17 17:57:23Tagged date : UTC 2016-01-17 18:03:30Cover : YesContentRating : mpaa|PG-13|300|

LongDescription : Межконтинентальный авиарейс. Билл Маркс, воздушный маршал, который обеспечивает безопасность пассажиров, получает сообщения с угрозами от маньяка-террориста. Преступник просчитал все ходы и подставил под обвинение самого спецагента. Теперь Маркс — цель спецслужб США. Ему остается одно: вычислить и обезвредить преступника, спасти пассажиров и свою любовь, которую он обретает на краю гибели. До взрыва остаются считанные минуты…HDVideo : Yes

VideoID : 1Format : AVCFormat/Info : Advanced Video CodecFormat profile : [email protected] settings, CABAC : YesFormat settings, ReFrames : 9 framesCodec ID : avc1Codec ID/Info : Advanced Video CodingDuration : 1h 46mnBit rate : 1 767 KbpsMaximum bit rate : 6 655 KbpsWidth : 1 280 pixelsHeight : 536 pixelsDisplay aspect ratio : 2.40:1Frame rate mode : ConstantFrame rate : 24.000 fpsColor space : YUVChroma subsampling : 4:2:0Bit depth : 8 bitsScan type : ProgressiveBits/(Pixel*Frame) : 0.107Stream size : 1.31 GiB (93%)Writing library : x264 core 146 r2538 121396cEncoding settings : cabac=1 / ref=9 / deblock=1:-1:-1 / analyse=0x3:0x133 / me=umh / subme=7 / psy=1 / psy_rd=1.00:0.15 / mixed_ref=1 / me_range=24 / chroma_me=1 / trellis=2 / 8x8dct=1 / cqm=0 / deadzone=21,11 / fast_pskip=1 / chroma_qp_offset=-3 / threads=3 / lookahead_threads=1 / sliced_threads=0 / nr=0 / decimate=1 / interlaced=0 / bluray_compat=0 / constrained_intra=0 / bframes=8 / b_pyramid=2 / b_adapt=2 / b_bias=0 / direct=3 / weightb=1 / open_gop=0 / weightp=2 / keyint=240 / keyint_min=24 / scenecut=40 / intra_refresh=0 / rc_lookahead=60 / rc=crf / mbtree=1 / crf=21.0 / qcomp=0.60 / qpmin=0 / qpmax=69 / qpstep=4 / ip_ratio=1.40 / aq=1:1.00Language : EnglishEncoded date : UTC 2016-01-17 05:43:29Tagged date : UTC 2016-01-17 17:58:23

AudioID : 2Format : AACFormat/Info : Advanced Audio CodecFormat profile : LCCodec ID : 40Duration : 1h 46mnBit rate mode : VariableBit rate : 128 KbpsMaximum bit rate : 135 KbpsChannel count : 2 channelsChannel positions : Front: L RSampling rate : 48.0 KHzCompression mode : LossyStream size : 97.1 MiB (7%)Language : RussianEncoded date : UTC 2016-01-17 17:49:30Tagged date : UTC 2016-01-17 17:58:23
[url=...39840292] [/url]

Трекер:  [ 17-Янв-2016 20:00 ]

  

Скачать .torrent

Размер .torrent файла 14 KB


Размер: 1.41 GB
Хэш (hash) релиза: fdd2c69d73ad00f7d00f340fb3f3b3579f0ad9d7

Еще никто не оставлял запись к записи скачать торрент [VIDEO] Воздушный маршал Non-Stop . Будь первым!

!Обратная связь