Counterpart
церемония

Скачать через торрент [VIDEO] Кровавая месть In the Blood бесплатно русская версия torrent активатор

Статистика раздачи
Размер:  1.84 GB   |    Зарегистрирован:  2 года 3 месяца   |    .torrent скачан:  15 раз   |   
Раздают:  1  
   
загрузка...
 
Автор Сообщение

Galfimbul

avatar Galfimbul


Кровавая месть / In the Blood

Год выпуска: 2014
Оригинальное название: In the Blood
Страна: Великобритания, Пуэрто Рико
Жанр: триллер, боевик, криминал
Возраст: 16+

Режиссер: Джон Стокуэлл

В ролях: Джина Карано, Кэм Жиганде, Исмаэль Круз, Луис Гусман, Дэнни Трехо, Трит Уильямс, Амори Ноласко, Стивен Лэнг, Ивет Йэтс, Элоиза Мамфорд

Описание: Сильная и красивая Ава мечтала провести с мужем счастливый отпуск на райских Карибских островах на берегу океана… В одно мгновение все превратилось в ад. После загадочного исчезновения мужа Ава начинает расследование. Во что бы то ни стало, она найдет людей, которые похитили и убили ее возлюбленного. Гнев женщины в горе не знает предела…

Продолжительность: 01:47:40
Перевод: Дублированный
Оригинальная дорожка: нет

Автор рипа:

Качество видео: BDRip Исходник: Blu-Ray Remux (1080p) Формат: mp4
Видео кодек: MPEG-4 AVC Аудио кодек: AAC
Видео: 1280x692 at 23.976 fps, AVC at 2 306 kbps avg, 0.109 bit/pixel
Аудио №1 Rus: 48.0 KHz, AAC, 2 ch, 128.0 Kbps
Субтитры: нет
Навигация по главам: нет
[16.01.2016 0:02:31] avs [info]: 1280x692p 1:1 @ 24000/1001 fps (cfr)
[16.01.2016 0:02:31] x264 [info]: using SAR=1/1
[16.01.2016 0:02:31] x264 [info]: using cpu capabilities: MMX2 SSE2Fast SSSE3 Cache64
[16.01.2016 0:02:31] x264 [info]: profile High, level 4.1
[17.01.2016 2:54:45] x264 [info]: frame I:1433 Avg QP:17.53 size: 89616
[17.01.2016 2:54:45] x264 [info]: frame P:39020 Avg QP:21.10 size: 23379
[17.01.2016 2:54:45] x264 [info]: frame B:114450 Avg QP:22.85 size: 7176
[17.01.2016 2:54:45] x264 [info]: consecutive B-frames: 3.6% 4.6% 8.6% 37.7% 15.3% 23.7% 6.6%
[17.01.2016 2:54:45] x264 [info]: mb I I16..4: 17.7% 66.0% 16.3%
[17.01.2016 2:54:45] x264 [info]: mb P I16..4: 4.7% 14.1% 1.5% P16..4: 42.6% 9.7% 10.1% 0.3% 0.1% skip:16.8%
[17.01.2016 2:54:45] x264 [info]: mb B I16..4: 0.3% 1.2% 0.2% B16..8: 39.9% 5.0% 1.2% direct: 4.3% skip:48.0% L0:44.1% L1:50.2% BI: 5.7%
[17.01.2016 2:54:45] x264 [info]: 8x8 transform intra:69.3% inter:76.3%
[17.01.2016 2:54:45] x264 [info]: direct mvs spatial:100.0% temporal:0.0%
[17.01.2016 2:54:45] x264 [info]: coded y,uvDC,uvAC intra: 61.6% 75.4% 43.4% inter: 13.5% 21.3% 2.6%
[17.01.2016 2:54:45] x264 [info]: i16 v,h,dc,p: 27% 16% 7% 50%
[17.01.2016 2:54:45] x264 [info]: i8 v,h,dc,ddl,ddr,vr,hd,vl,hu: 11% 9% 6% 9% 14% 13% 14% 11% 12%
[17.01.2016 2:54:45] x264 [info]: i4 v,h,dc,ddl,ddr,vr,hd,vl,hu: 18% 10% 4% 8% 14% 12% 13% 9% 12%
[17.01.2016 2:54:45] x264 [info]: i8c dc,h,v,p: 32% 27% 20% 21%
[17.01.2016 2:54:45] x264 [info]: Weighted P-Frames: Y:4.2% UV:2.8%
[17.01.2016 2:54:45] x264 [info]: ref P L0: 53.5% 11.3% 15.0% 6.0% 4.6% 3.7% 3.3% 2.3% 0.4% 0.0%
[17.01.2016 2:54:45] x264 [info]: ref B L0: 81.6% 8.9% 4.4% 2.1% 1.6% 0.9% 0.5%
[17.01.2016 2:54:45] x264 [info]: ref B L1: 94.5% 5.5%
[17.01.2016 2:54:45] x264 [info]: kb/s:2305.62
[17.01.2016 2:54:45] encoded 154903 frames, 1.60 fps, 2305.62 kb/s
GeneralComplete name : E:\Krovavaya_mest_2015_KinoGadget.mp4Format : MPEG-4Format profile : Base MediaCodec ID : isomFile size : 1.84 GiBDuration : 1h 47mnOverall bit rate mode : VariableOverall bit rate : 2 442 KbpsMovie name : Кровавая местьPerformer : Джон СтокуэллGenre : Action, Crime, ThrillerContentType : Short FilmRecorded date : 2014Encoded date : UTC 2016-01-17 05:38:41Tagged date : UTC 2016-01-17 17:17:27Cover : YesContentRating : mpaa|R|400|

LongDescription : Сильная и красивая Ава мечтала провести с мужем счастливый отпуск на райских Карибских островах на берегу океана… В одно мгновение все превратилось в ад. После загадочного исчезновения мужа Ава начинает расследование. Во что бы то ни стало, она найдет людей, которые похитили и убили ее возлюбленного. Гнев женщины в горе не знает предела…HDVideo : Yes

VideoID : 1Format : AVCFormat/Info : Advanced Video CodecFormat profile : [email protected] settings, CABAC : YesFormat settings, ReFrames : 8 framesCodec ID : avc1Codec ID/Info : Advanced Video CodingDuration : 1h 47mnBit rate : 2 306 KbpsMaximum bit rate : 19.0 MbpsWidth : 1 280 pixelsHeight : 692 pixelsDisplay aspect ratio : 1.85:1Frame rate mode : ConstantFrame rate : 23.976 fpsColor space : YUVChroma subsampling : 4:2:0Bit depth : 8 bitsScan type : ProgressiveBits/(Pixel*Frame) : 0.109Stream size : 1.73 GiB (94%)Writing library : x264 core 148 r2638 7599210Encoding settings : cabac=1 / ref=8 / deblock=1:-1:-1 / analyse=0x3:0x133 / me=umh / subme=9 / psy=1 / psy_rd=1.00:0.15 / mixed_ref=1 / me_range=16 / chroma_me=1 / trellis=2 / 8x8dct=1 / cqm=0 / deadzone=21,11 / fast_pskip=1 / chroma_qp_offset=-3 / threads=3 / lookahead_threads=1 / sliced_threads=0 / nr=0 / decimate=1 / interlaced=0 / bluray_compat=0 / constrained_intra=0 / bframes=6 / b_pyramid=2 / b_adapt=2 / b_bias=0 / direct=3 / weightb=1 / open_gop=0 / weightp=2 / keyint=240 / keyint_min=23 / scenecut=40 / intra_refresh=0 / rc_lookahead=60 / rc=crf / mbtree=1 / crf=21.0 / qcomp=0.60 / qpmin=0 / qpmax=69 / qpstep=4 / ip_ratio=1.40 / aq=1:1.00Language : EnglishEncoded date : UTC 2016-01-17 05:35:39Tagged date : UTC 2016-01-17 05:43:04

AudioID : 2Format : AACFormat/Info : Advanced Audio CodecFormat profile : LCCodec ID : 40Duration : 1h 47mnBit rate mode : VariableBit rate : 128 KbpsMaximum bit rate : 134 KbpsChannel count : 2 channelsChannel positions : Front: L RSampling rate : 48.0 KHzCompression mode : LossyStream size : 98.6 MiB (5%)Language : RussianEncoded date : UTC 2016-01-17 05:29:22Tagged date : UTC 2016-01-17 05:43:04
[url=...39840292] [/url]

Трекер:  [ 17-Янв-2016 19:30 ]

  

Скачать .torrent

Размер .torrent файла 19 KB


Размер: 1.84 GB
Хэш (hash) релиза: 62b8d9af85c0f65a2666cd7269fcbbd42cc4820f

Еще никто не оставлял запись к записи скачать торрент [VIDEO] Кровавая месть In the Blood . Будь первым!

!Обратная связь