Marguerite Kaye - Il signore del deserto ... | Akira Ito | Chapter 2

Скачать через торрент [VIDEO] Убей меня трижды Kill Me Three Times бесплатно русская версия torrent активатор

Статистика раздачи
Размер:  1.27 GB   |    Зарегистрирован:  2 года 6 месяцев   |    .torrent скачан:  23 раза   |   
Раздают:  1  
   
загрузка...
 
Автор Сообщение

Galfimbul

avatar Galfimbul


Убей меня трижды / Kill Me Three Times

Год выпуска: 2014
Оригинальное название: Kill Me Three Times
Страна: США, Австралия
Жанр: триллер, криминал, комедия
Возраст: 18+

Режиссер: Крив Стендерс

В ролях: Тереза Палмер, Саймон Пегг, Люк Хемсворт, Алиси Брага, Салливан Степлтон, Каллэн Мулвей, Брайан Браун, Стив Ле Маркванд, Тони Спенсер, Анна Филп

Описание: Молодая женщина, живущая в австралийском городке, является нитью, которая связывает три истории — убийства, шантажа и мести.

Продолжительность: 01:30:22
Перевод: Профессиональный многоголосый
Оригинальная дорожка: нет

Автор рипа:

Качество видео: BDRip Исходник: Blu-Ray Remux (1080p) Формат: mp4
Видео кодек: MPEG-4 AVC Аудио кодек: AAC
Видео: 1280x536 at 23.976 fps, AVC at 1 872 kbps avg, 0.114 bit/pixel
Аудио №1 Rus: 48.0 KHz, AAC, 2 ch, 128.0 Kbps
Субтитры: нет
Навигация по главам: нет
GeneralComplete name : E:\Ubej_menya_trizhdy.2014_KinoGadget.mp4Format : MPEG-4Format profile : Base MediaCodec ID : isomFile size : 1.27 GiBDuration : 1h 30mnOverall bit rate mode : VariableOverall bit rate : 2 008 KbpsMovie name : Убей меня триждыPerformer : Крив СтендерсGenre : Action, ThrillerContentType : Short FilmRecorded date : 2014Encoded date : UTC 2016-01-16 11:26:37Tagged date : UTC 2016-01-16 11:36:23Cover : YesContentRating : mpaa|R|400|

LongDescription : Молодая женщина, живущая в австралийском городке, является нитью, которая связывает три истории — убийства, шантажа и мести.HDVideo : Yes

VideoID : 1Format : AVCFormat/Info : Advanced Video CodecFormat profile : [email protected] settings, CABAC : YesFormat settings, ReFrames : 11 framesCodec ID : avc1Codec ID/Info : Advanced Video CodingDuration : 1h 30mnBit rate : 1 872 KbpsMaximum bit rate : 13.8 MbpsWidth : 1 280 pixelsHeight : 536 pixelsDisplay aspect ratio : 2.40:1Frame rate mode : ConstantFrame rate : 23.976 fpsColor space : YUVChroma subsampling : 4:2:0Bit depth : 8 bitsScan type : ProgressiveBits/(Pixel*Frame) : 0.114Stream size : 1.18 GiB (93%)Writing library : x264 core 146 r2538 121396cEncoding settings : cabac=1 / ref=11 / deblock=1:-1:-1 / analyse=0x3:0x133 / me=umh / subme=9 / psy=1 / psy_rd=1.00:0.00 / mixed_ref=1 / me_range=24 / chroma_me=1 / trellis=2 / 8x8dct=1 / cqm=0 / deadzone=21,11 / fast_pskip=1 / chroma_qp_offset=-2 / threads=3 / lookahead_threads=1 / sliced_threads=0 / nr=0 / decimate=1 / interlaced=0 / bluray_compat=0 / constrained_intra=0 / bframes=4 / b_pyramid=2 / b_adapt=2 / b_bias=0 / direct=3 / weightb=1 / open_gop=0 / weightp=2 / keyint=240 / keyint_min=23 / scenecut=40 / intra_refresh=0 / rc_lookahead=60 / rc=crf / mbtree=1 / crf=21.0 / qcomp=0.60 / qpmin=0 / qpmax=69 / qpstep=4 / ip_ratio=1.40 / aq=1:1.50Language : EnglishEncoded date : UTC 2016-01-16 11:20:11Tagged date : UTC 2016-01-16 11:27:35

AudioID : 2Format : AACFormat/Info : Advanced Audio CodecFormat profile : LCCodec ID : 40Duration : 1h 30mnBit rate mode : VariableBit rate : 128 KbpsMaximum bit rate : 134 KbpsChannel count : 2 channelsChannel positions : Front: L RSampling rate : 48.0 KHzCompression mode : LossyStream size : 82.7 MiB (6%)Language : RussianEncoded date : UTC 2016-01-16 11:07:30Tagged date : UTC 2016-01-16 11:27:35
[url=...39840292] [/url]

Трекер:  [ 16-Янв-2016 14:00 ]

  

Скачать .torrent

Размер .torrent файла 13 KB


Размер: 1.27 GB
Хэш (hash) релиза: edbb93757fd5be9436cc90f00696665f5b6e5dec

Еще никто не оставлял запись к записи скачать торрент [VIDEO] Убей меня трижды Kill Me Three Times . Будь первым!

!Обратная связь