Chapter 001 | Dawn Olivieri | Geukbisusa

Скачать через торрент [VIDEO] Реальные упыри What We Do in the Shadows бесплатно русская версия torrent активатор

Статистика раздачи
Размер:  1.25 GB   |    Зарегистрирован:  2 года 6 месяцев   |    .torrent скачан:  33 раза   |   
Раздают:  1  
   
загрузка...
 
Автор Сообщение

Galfimbul

avatar Galfimbul


Реальные упыри / What We Do in the Shadows«Умереть не встать»
Год выпуска: 2014
Оригинальное название: What We Do in the Shadows
Страна: Новая Зеландия, США
Жанр: комедия, ужасы
Возраст: 16+

Режиссер: Джемейн Клемент, Тайка Вайтити

В ролях: Джемейн Клемент, Таика Вайтити, Джеки Ван Бик, Риз Дэрби, Бен Френшам, Марио Джая, Бен Харкорт, Айзек Херон, Коэн Холлоуэй, Джейсон Хойте, Аарон Джексон, Натан Майстер, Майк Миноуг

Описание: История жизни Виаго, Дикона и Владислава — трёх соседей и по совместительству бессмертных вампиров, которые всего лишь пытаются выжить в современном мире, где есть арендная плата, фейсконтроль в ночных клубах, губительный солнечный свет и другие неприятности.

Продолжительность: 01:25:31
Перевод: Дублированный [iTunes]
Оригинальная дорожка: нет

Автор рипа:

Качество видео: BDRip Исходник: Blu-Ray Remux (1080p) Формат: mp4
Видео кодек: MPEG-4 AVC Аудио кодек: AAC
Видео: 1280x720 at 23.976 fps, AVC at 1 949 kbps avg, 0.088 bit/pixel
Аудио №1 Rus: 48.0 KHz, AAC, 2 ch, 128.0 Kbps
Субтитры: нет
Навигация по главам: нет
GeneralComplete name : E:\Realnye_upyri.2014_KinoGadget.mp4Format : MPEG-4Format profile : Base MediaCodec ID : isomFile size : 1.25 GiBDuration : 1h 25mnOverall bit rate mode : VariableOverall bit rate : 2 085 KbpsMovie name : Реальные упыриPerformer : Джемейн Клемент, Тайка ВайтитиGenre : Comedy, HorrorContentType : Short FilmRecorded date : 2014Encoded date : UTC 2016-01-16 08:20:39Tagged date : UTC 2016-01-16 08:27:26Cover : YesContentRating : mpaa|R|400|

LongDescription : История жизни Виаго, Дикона и Владислава - трёх соседей и по совместительству бессмертных вампиров, которые всего лишь пытаются выжить в современном мире, где есть арендная плата, фейсконтроль в ночных клубах, губительный солнечный свет и другие неприятности.HDVideo : Yes

VideoID : 1Format : AVCFormat/Info : Advanced Video CodecFormat profile : [email protected] settings, CABAC : YesFormat settings, ReFrames : 9 framesCodec ID : avc1Codec ID/Info : Advanced Video CodingDuration : 1h 25mnBit rate : 1 949 KbpsMaximum bit rate : 11.2 MbpsWidth : 1 280 pixelsHeight : 720 pixelsDisplay aspect ratio : 16:9Frame rate mode : ConstantFrame rate : 23.976 fpsColor space : YUVChroma subsampling : 4:2:0Bit depth : 8 bitsScan type : ProgressiveBits/(Pixel*Frame) : 0.088Stream size : 1.16 GiB (93%)Writing library : x264 core 146 r2538 121396cEncoding settings : cabac=1 / ref=9 / deblock=1:-1:-1 / analyse=0x3:0x133 / me=umh / subme=10 / psy=1 / psy_rd=1.00:0.00 / mixed_ref=1 / me_range=24 / chroma_me=1 / trellis=2 / 8x8dct=1 / cqm=0 / deadzone=21,11 / fast_pskip=1 / chroma_qp_offset=-2 / threads=3 / lookahead_threads=1 / sliced_threads=0 / nr=0 / decimate=1 / interlaced=0 / bluray_compat=0 / constrained_intra=0 / bframes=6 / b_pyramid=2 / b_adapt=2 / b_bias=0 / direct=3 / weightb=1 / open_gop=0 / weightp=2 / keyint=240 / keyint_min=23 / scenecut=40 / intra_refresh=0 / rc_lookahead=50 / rc=crf / mbtree=1 / crf=21.0 / qcomp=0.60 / qpmin=0 / qpmax=69 / qpstep=4 / ip_ratio=1.40 / aq=1:1.00Language : EnglishEncoded date : UTC 2016-01-10 14:18:29Tagged date : UTC 2016-01-16 08:21:42

AudioID : 2Format : AACFormat/Info : Advanced Audio CodecFormat profile : LCCodec ID : 40Duration : 1h 25mnBit rate mode : VariableBit rate : 128 KbpsMaximum bit rate : 135 KbpsChannel count : 2 channelsChannel positions : Front: L RSampling rate : 48.0 KHzCompression mode : LossyStream size : 78.3 MiB (6%)Language : RussianEncoded date : UTC 2016-01-16 08:02:10Tagged date : UTC 2016-01-16 08:21:42
[url=...39840292] [/url]

Трекер:  [ 16-Янв-2016 11:00 ]

  

Скачать .torrent

Размер .torrent файла 13 KB


Размер: 1.25 GB
Хэш (hash) релиза: 38e6e3179f1a418eb95fb5d81119b6a8b2857ec4

Еще никто не оставлял запись к записи скачать торрент [VIDEO] Реальные упыри What We Do in the Shadows . Будь первым!

!Обратная связь