The Affair | Suicide Squad: Hell to Pay (2018) | Descarca

Скачать через торрент [VIDEO] Властелин колец: Две крепости The Lord of the Rings: The Two Towers бесплатно русская версия torrent активатор

Статистика раздачи
Размер:  3.45 GB   |    Зарегистрирован:  2 года 6 месяцев   |    .torrent скачан:  73 раза   |   
Раздают:  1  
   
загрузка...
 
Автор Сообщение

Galfimbul

avatar Galfimbul


Властелин колец: Две крепости / The Lord of the Rings: The Two Towers«Приключение продолжается»
Год выпуска: 2002
Оригинальное название: The Lord of the Rings: The Two Towers
Страна: США, Новая Зеландия
Жанр: фэнтези, приключения
Возраст: 12+

Режиссер: Питер Джексон

В ролях: Элайджа Вуд, Шон Эстин, Билли Бойд, Доминик Монаган, Ян МакКеллен, Шон Бин, Вигго Мортенсен, Орландо Блум, Джон Рис-Дэвис

Описание: Братство распалось, но Кольцо Всевластья должно быть уничтожено. Фродо и Сэм вынуждены доверить свои жизни Голлуму, который взялся провести их к вратам Мордора. Громадная Армия Сарумана приближается: члены братства и их союзники готовы принять бой. Битва за Средиземье продолжается.

Продолжительность: 02:59:24
Перевод: Дублированный
Оригинальная дорожка: нет

Автор рипа:

Качество видео: BDRip Исходник: Blu-Ray Remux (1080p) Формат: mp4
Видео кодек: MPEG-4 AVC Аудио кодек: AAC
Видео: 1280x528 at 23.976 fps, AVC at 2 616 kbps avg, 0.161 bit/pixel
Аудио №1 Rus: 48.0 KHz, AAC, 2 ch, 128.0 Kbps
Субтитры: нет
Навигация по главам: нет
[url=...5151555]Властелин колец: Братство кольца / The Lord of the Rings: The Fellowship of the Ring (2001)[/url]
Властелин колец: Две крепости / The Lord of the Rings: The Two Towers (2002)
[url=...5151602]Властелин колец: Возвращение Короля / The Lord of the Rings: The Return of the King (2003)[/url]
GeneralComplete name : E:\Vlastelin.koles.Dve.kreposti.2002_KinoGadget.mp4Format : MPEG-4Format profile : Base MediaCodec ID : isomFile size : 3.45 GiBDuration : 2h 59mnOverall bit rate mode : VariableOverall bit rate : 2 752 KbpsMovie name : Властелин колец: Две крепостиPerformer : Питер ДжексонGenre : AdventureContentType : Short FilmRecorded date : 2002Encoded date : UTC 2016-01-10 13:53:31Tagged date : UTC 2016-01-15 17:05:21Cover : YesContentRating : mpaa|PG-13|300|

LongDescription : Братство распалось, но Кольцо Всевластья должно быть уничтожено. Фродо и Сэм вынуждены доверить свои жизни Голлуму, который взялся провести их к вратам Мордора. Громадная Армия Сарумана приближается: члены братства и их союзники готовы принять бой. Битва за Средиземье продолжается.HDVideo : Yes

VideoID : 1Format : AVCFormat/Info : Advanced Video CodecFormat profile : [email protected] settings, CABAC : YesFormat settings, ReFrames : 11 framesCodec ID : avc1Codec ID/Info : Advanced Video CodingDuration : 2h 59mnBit rate : 2 616 KbpsMaximum bit rate : 9 329 KbpsWidth : 1 280 pixelsHeight : 528 pixelsDisplay aspect ratio : 2.40:1Frame rate mode : ConstantFrame rate : 23.976 fpsColor space : YUVChroma subsampling : 4:2:0Bit depth : 8 bitsScan type : ProgressiveBits/(Pixel*Frame) : 0.161Stream size : 3.28 GiB (95%)Writing library : x264 core 142 r2431 ac76440Encoding settings : cabac=1 / ref=11 / deblock=1:-1:-1 / analyse=0x3:0x133 / me=umh / subme=10 / psy=1 / psy_rd=1.00:0.20 / mixed_ref=1 / me_range=24 / chroma_me=1 / trellis=2 / 8x8dct=1 / cqm=0 / deadzone=21,11 / fast_pskip=1 / chroma_qp_offset=-3 / threads=3 / lookahead_threads=1 / sliced_threads=0 / nr=0 / decimate=1 / interlaced=0 / bluray_compat=0 / constrained_intra=0 / bframes=4 / b_pyramid=2 / b_adapt=2 / b_bias=0 / direct=3 / weightb=1 / open_gop=0 / weightp=2 / keyint=240 / keyint_min=23 / scenecut=40 / intra_refresh=0 / rc_lookahead=60 / rc=crf / mbtree=1 / crf=21.0 / qcomp=0.60 / qpmin=0 / qpmax=69 / qpstep=4 / ip_ratio=1.40 / aq=1:1.50Language : EnglishEncoded date : UTC 2016-01-10 13:34:49Tagged date : UTC 2016-01-10 13:56:28

AudioID : 2Format : AACFormat/Info : Advanced Audio CodecFormat profile : LCCodec ID : 40Duration : 2h 59mnBit rate mode : VariableBit rate : 128 KbpsMaximum bit rate : 135 KbpsChannel count : 2 channelsChannel positions : Front: L RSampling rate : 48.0 KHzCompression mode : LossyStream size : 164 MiB (5%)Language : RussianEncoded date : UTC 2016-01-10 13:34:44Tagged date : UTC 2016-01-10 13:56:28
[url=...39840292] [/url]

Трекер:  [ 15-Янв-2016 20:00 ]

  

Скачать .torrent

Размер .torrent файла 17 KB


Размер: 3.45 GB
Хэш (hash) релиза: d3d397d88ebbeef534a6c8e2064b63675ca0445f

Еще никто не оставлял запись к записи скачать торрент [VIDEO] Властелин колец: Две крепости The Lord of the Rings: The Two Towers . Будь первым!

!Обратная связь