Regarder Le Film | [FootsieBabes.com / 21Sextury.com] Charisma Capelli (Irresistable Charisma) [28.04.2012 г., Blonde, Natural Tits, Tatooed, Foot, Oral, Hardcore, Cumshot, 1080p] | Best Android Apps - July 2018!

Скачать через торрент [VIDEO] Властелин колец: Возвращение Короля The Lord of the Rings: The Return of the King бесплатно русская версия torrent активатор

Статистика раздачи
Размер:  3.31 GB   |    Зарегистрирован:  2 года 6 месяцев   |    .torrent скачан:  62 раза   |   
Раздают:  1  
   
загрузка...
 
Автор Сообщение

Galfimbul

avatar Galfimbul


Властелин колец: Возвращение Короля / The Lord of the Rings: The Return of the King«There can be no triumph without loss. No victory without suffering. No freedom without sacrifice»
Год выпуска: 2003
Оригинальное название: The Lord of the Rings: The Return of the King
Страна: США, Новая Зеландия
Жанр: фэнтези, приключения
Возраст: 12+

Режиссер: Питер Джексон

В ролях: Элайджа Вуд, Иэн МакКеллен, Вигго Мортенсен, Шон Эстин, Билли Бойд, Лив Тайлер, Доминик Монаган, Орландо Блум, Джон Риз-Дэйвис, Иэн Холм, Кейт Бланшетт, Хьюго Уивинг, Бернард Хилл, Миранда Отто, Карл Урбан, Дэвид Уэнэм, Джон Ноубл, Энди Серкис

Описание: Последняя часть трилогии о Кольце Всевластия и о героях, взявших на себя бремя спасения Средиземья. Повелитель сил Тьмы Саурон направляет свои бесчисленные рати под стены Минас-Тирита, крепости Последней Надежды. Он предвкушает близкую победу, но именно это и мешает ему заметить две крохотные фигурки — хоббитов, приближающихся к Роковой Горе, где им предстоит уничтожить Кольцо Всевластия. Улыбнется ли им счастье?

Продолжительность: 03:21:00
Перевод: Дублированный
Оригинальная дорожка: нет

Автор рипа:

Качество видео: BDRip Исходник: Blu-Ray Remux (1080p) Формат: mp4
Видео кодек: MPEG-4 AVC Аудио кодек: AAC
Видео: 1280x528 at 23.976 fps, AVC at 2 218 kbps avg, 0.137 bit/pixel
Аудио №1 Rus: 48.0 KHz, AAC, 2 ch, 128.0 Kbps
Субтитры: нет
Навигация по главам: нет
[url=...5151555]Властелин колец: Братство кольца / The Lord of the Rings: The Fellowship of the Ring (2001)[/url]
[url=...5151577]Властелин колец: Две крепости / The Lord of the Rings: The Two Towers (2002)[/url]
Властелин колец: Возвращение Короля / The Lord of the Rings: The Return of the King (2003)[/url]
<div class="sp-wrap">
<div class="sp-head folded"><span>ТХ/MediaInfo</span></div>
<div class="sp-body">

GeneralComplete name : E:\Vlastelin.koles.Vozvrashenie.korolj.2003_KinoGadget.mp4Format : MPEG-4Format profile : Base MediaCodec ID : isomFile size : 3.31 GiBDuration : 3h 21mnOverall bit rate mode : VariableOverall bit rate : 2 355 KbpsMovie name : Властелин колец: Возвращение КороляPerformer : Питер ДжексонGenre : AdventureContentType : Short FilmRecorded date : 2003Encoded date : UTC 2016-01-10 14:29:55Tagged date : UTC 2016-01-15 17:33:45Cover : YesContentRating : mpaa|PG-13|300|

LongDescription : Последняя часть трилогии о Кольце Всевластия и о героях, взявших на себя бремя спасения Средиземья. Повелитель сил Тьмы Саурон направляет свои бесчисленные рати под стены Минас-Тирита, крепости Последней Надежды. Он предвкушает близкую победу, но именно это и мешает ему заметить две крохотные фигурки — хоббитов, приближающихся к Роковой Горе, где им предстоит уничтожить Кольцо Всевластия. Улыбнется ли им счастье?HDVideo : Yes

VideoID : 1Format : AVCFormat/Info : Advanced Video CodecFormat profile : [email protected] settings, CABAC : YesFormat settings, ReFrames : 11 framesCodec ID : avc1Codec ID/Info : Advanced Video CodingDuration : 3h 21mnBit rate : 2 218 KbpsMaximum bit rate : 9 725 KbpsWidth : 1 280 pixelsHeight : 528 pixelsDisplay aspect ratio : 2.40:1Frame rate mode : ConstantFrame rate : 23.976 fpsColor space : YUVChroma subsampling : 4:2:0Bit depth : 8 bitsScan type : ProgressiveBits/(Pixel*Frame) : 0.137Stream size : 3.11 GiB (94%)Writing library : x264 core 142 r2431 ac76440Encoding settings : cabac=1 / ref=11 / deblock=1:-1:-1 / analyse=0x3:0x133 / me=umh / subme=10 / psy=1 / psy_rd=1.00:0.20 / mixed_ref=1 / me_range=24 / chroma_me=1 / trellis=2 / 8x8dct=1 / cqm=0 / deadzone=21,11 / fast_pskip=1 / chroma_qp_offset=-3 / threads=3 / lookahead_threads=1 / sliced_threads=0 / nr=0 / decimate=1 / interlaced=0 / bluray_compat=0 / constrained_intra=0 / bframes=4 / b_pyramid=2 / b_adapt=2 / b_bias=0 / direct=3 / weightb=1 / open_gop=0 / weightp=2 / keyint=240 / keyint_min=23 / scenecut=40 / intra_refresh=0 / rc_lookahead=60 / rc=crf / mbtree=1 / crf=21.0 / qcomp=0.60 / qpmin=0 / qpmax=69 / qpstep=4 / ip_ratio=1.40 / aq=1:1.00Language : EnglishEncoded date : UTC 2016-01-10 14:06:55Tagged date : UTC 2016-01-10 14:33:21

AudioID : 2Format : AACFormat/Info : Advanced Audio CodecFormat profile : LCCodec ID : 40Duration : 3h 21mnBit rate mode : VariableBit rate : 128 KbpsMaximum bit rate : 135 KbpsChannel count : 2 channelsChannel positions : Front: L RSampling rate : 48.0 KHzCompression mode : LossyStream size : 184 MiB (5%)Language : RussianEncoded date : UTC 2016-01-10 14:09:00Tagged date : UTC 2016-01-10 14:33:21
</div>
</div> [url=...39840292] [/url]

Трекер:  [ 15-Янв-2016 20:00 ]

  

Скачать .torrent

Размер .torrent файла 17 KB


Размер: 3.31 GB
Хэш (hash) релиза: 21cd3a5c45afb259eb10eae505c3eb9081a10ecc

Еще никто не оставлял запись к записи скачать торрент [VIDEO] Властелин колец: Возвращение Короля The Lord of the Rings: The Return of the King . Будь первым!

!Обратная связь