Uma Noite em Nova Iorque | Ali's Wedding | Turn Over

Скачать через торрент [VIDEO] Властелин колец: Братство кольца The Lord of the Rings: The Fellowship of the Ring бесплатно русская версия torrent активатор

Статистика раздачи
Размер:  3.04 GB   |    Зарегистрирован:  2 года 6 месяцев   |    .torrent скачан:  71 раз   |   
Раздают:  1  
   
загрузка...
 
Автор Сообщение

Galfimbul

avatar Galfimbul


Властелин колец: Братство кольца / The Lord of the Rings: The Fellowship of the Ring«Power can be held in the smallest of things...»
Год выпуска: 2001
Оригинальное название: The Lord of the Rings: The Fellowship of the Ring
Страна: США, Новая Зеландия
Жанр: фэнтези, приключения
Возраст: 12+

Режиссер: Питер Джексон

В ролях: Элайджа Вуд, Шон Эстин, Иэн МакКеллен, Орландо Блум, Лив Тайлер, Вигго Мортенсен, Шон Бин, Кейт Бланшетт, Джон Рис-Дэвис, Бернард Хилл, Кристофер Ли, Билли Бойд, Доминик Монаган, Хьюго Уивинг, Сала Бэйкер, Мартон Чокаш, Меган Эдвардс, Майкл Элсворт, Лоуренс Макор

Описание: Сказания о Средиземье — это хроника Великой войны за Кольцо, войны, длившейся не одну тысячу лет. Тот, кто владел Кольцом, получал власть над всеми живыми тварями, но был обязан служить злу.

Тихая деревня, где живут хоббиты. Волшебник Гэндальф, придя на 111-й день рождения к своему старому другу Бильбо Бэггинсу, начинает вести разговор о кольце, которое Бильбо нашел много лет назад. Это кольцо принадлежало когда-то темному властителю Средиземья Саурону, и оно дает большую власть своему обладателю. Теперь Саурон хочет вернуть себе власть над Средиземьем. Бильбо отдает найденное кольцо своему племяннику Фродо, который пытается научиться справляться с тем страшным могуществом, которое дает ему кольцо…

Продолжительность: 02:58:23
Перевод: Дублированный
Оригинальная дорожка: нет

Автор рипа:

Качество видео: BDRip Исходник: Blu-Ray Remux (1080p) Формат: mp4
Видео кодек: MPEG-4 AVC Аудио кодек: AAC
Видео: 1280x528 at 23.976 fps, AVC at 2 304 kbps avg, 0.142 bit/pixel
Аудио №1 Rus: 48.0 KHz, AAC, 2 ch, 128.0 Kbps
Субтитры: нет
Навигация по главам: нет
Властелин колец: Братство кольца / The Lord of the Rings: The Fellowship of the Ring (2001)
GeneralComplete name : E:\Vlastelin.koles.Bratstvo.kol'ca.2001_KinoGadget.mp4Format : MPEG-4Format profile : Base MediaCodec ID : isomFile size : 3.04 GiBDuration : 2h 58mnOverall bit rate mode : VariableOverall bit rate : 2 440 KbpsMovie name : Властелин колец: Братство кольцаPerformer : Питер ДжексонGenre : AdventureContentType : Short FilmRecorded date : 2001Encoded date : UTC 2016-01-10 13:20:56Tagged date : UTC 2016-01-15 16:32:41Cover : YesContentRating : mpaa|PG-13|300|

LongDescription : Сказания о Средиземье — это хроника Великой войны за Кольцо, войны, длившейся не одну тысячу лет. Тот, кто владел Кольцом, получал власть над всеми живыми тварями, но был обязан служить злу.HDVideo : Yes

VideoID : 1Format : AVCFormat/Info : Advanced Video CodecFormat profile : [email protected] settings, CABAC : YesFormat settings, ReFrames : 11 framesCodec ID : avc1Codec ID/Info : Advanced Video CodingDuration : 2h 58mnBit rate : 2 304 KbpsMaximum bit rate : 9 109 KbpsWidth : 1 280 pixelsHeight : 528 pixelsDisplay aspect ratio : 2.40:1Frame rate mode : ConstantFrame rate : 23.976 fpsColor space : YUVChroma subsampling : 4:2:0Bit depth : 8 bitsScan type : ProgressiveBits/(Pixel*Frame) : 0.142Stream size : 2.87 GiB (94%)Writing library : x264 core 142 r2431 ac76440Encoding settings : cabac=1 / ref=11 / deblock=1:-1:-1 / analyse=0x3:0x133 / me=umh / subme=10 / psy=1 / psy_rd=1.00:0.20 / mixed_ref=1 / me_range=24 / chroma_me=1 / trellis=2 / 8x8dct=1 / cqm=0 / deadzone=21,11 / fast_pskip=1 / chroma_qp_offset=-3 / threads=3 / lookahead_threads=1 / sliced_threads=0 / nr=0 / decimate=1 / interlaced=0 / bluray_compat=0 / constrained_intra=0 / bframes=4 / b_pyramid=2 / b_adapt=2 / b_bias=0 / direct=3 / weightb=1 / open_gop=0 / weightp=2 / keyint=240 / keyint_min=23 / scenecut=40 / intra_refresh=0 / rc_lookahead=60 / rc=crf / mbtree=1 / crf=21.0 / qcomp=0.60 / qpmin=0 / qpmax=69 / qpstep=4 / ip_ratio=1.40 / aq=1:1.50Language : EnglishEncoded date : UTC 2016-01-10 13:11:06Tagged date : UTC 2016-01-10 13:23:07

AudioID : 2Format : AACFormat/Info : Advanced Audio CodecFormat profile : LCCodec ID : 40Duration : 2h 58mnBit rate mode : VariableBit rate : 128 KbpsMaximum bit rate : 135 KbpsChannel count : 2 channelsChannel positions : Front: L RSampling rate : 48.0 KHzCompression mode : LossyStream size : 163 MiB (5%)Language : RussianEncoded date : UTC 2016-01-10 12:50:30Tagged date : UTC 2016-01-10 13:23:07
[url=...39840292] [/url]

Трекер:  [ 15-Янв-2016 19:00 ]

  

Скачать .torrent

Размер .torrent файла 15 KB


Размер: 3.04 GB
Хэш (hash) релиза: 68d35eee6116a35e313182817729e410974ec1cb

Еще никто не оставлял запись к записи скачать торрент [VIDEO] Властелин колец: Братство кольца The Lord of the Rings: The Fellowship of the Ring . Будь первым!

!Обратная связь