Add widgets | Back in the Game | The Booze Bombs

Скачать через торрент [VIDEO] Визит The Visit бесплатно русская версия torrent активатор

Статистика раздачи
Размер:  1.58 GB   |    Зарегистрирован:  2 года 6 месяцев   |    .torrent скачан:  32 раза   |   
Раздают:  1  
   
загрузка...
 
Автор Сообщение

Galfimbul

avatar Galfimbul


Визит / The Visit«Любовь родственников не знает предела»
Год выпуска: 2015
Оригинальное название: The Visit
Страна: США
Жанр: ужасы, триллер
Возраст: 16+

Режиссер: М. Найт Шьямалан

В ролях: Оливия ДеДжондж, Эд Оксенбульд, Дианна Данаган, Питер МакРобби, Кэтрин Хан, Селия Кинэн-Болджер, Самуэль Стриклен, Патрик Дарро, Хорхе Кордова, Стив Аннан

Описание: Много лет назад она бежала из родительского дома без оглядки и с тех пор старалась не вспоминать события той самой ночи. Теперь у нее уже взрослые дети. Однажды они получают приглашения от бабушки и дедушки, которых никогда не видели прежде, и решают нанести им визит.

Продолжительность: 01:33:55
Перевод: Дублированный [Лицензия]
Оригинальная дорожка: нет

Автор рипа:

Качество видео: BDRip Исходник: Blu-Ray Remux (1080p) Формат: mp4
Видео кодек: MPEG-4 AVC Аудио кодек: AAC
Видео: 1280x692 at 23.976 fps, AVC at 2 270 kbps avg, 0.107 bit/pixel
Аудио №1 Rus: 48.0 KHz, AAC, 2 ch, 128.0 Kbps
Субтитры: нет
Навигация по главам: нет
[14.01.2016 23:08:04] avs [info]: 1280x692p 1:1 @ 24000/1001 fps (cfr)
[14.01.2016 23:08:04] x264 [info]: using SAR=1/1
[14.01.2016 23:08:04] x264 [info]: using cpu capabilities: MMX2 SSE2Fast SSSE3 Cache64
[14.01.2016 23:08:04] x264 [info]: profile High, level 4.1
[15.01.2016 16:16:20] x264 [info]: frame I:730 Avg QP:15.17 size:106129
[15.01.2016 16:16:23] x264 [info]: frame P:38664 Avg QP:18.11 size: 22485
[15.01.2016 16:16:23] x264 [info]: frame B:95709 Avg QP:19.23 size: 6816
[15.01.2016 16:16:23] x264 [info]: consecutive B-frames: 1.8% 3.7% 22.4% 72.1%
[15.01.2016 16:16:23] x264 [info]: mb I I16..4: 15.4% 67.3% 17.3%
[15.01.2016 16:16:23] x264 [info]: mb P I16..4: 2.6% 6.2% 0.7% P16..4: 47.0% 13.3% 13.1% 0.2% 0.1% skip:16.8%
[15.01.2016 16:16:23] x264 [info]: mb B I16..4: 0.3% 0.6% 0.1% B16..8: 40.5% 5.8% 1.0% direct: 3.7% skip:48.0% L0:45.3% L1:50.0% BI: 4.7%
[15.01.2016 16:16:23] x264 [info]: 8x8 transform intra:64.5% inter:69.4%
[15.01.2016 16:16:23] x264 [info]: direct mvs spatial:99.5% temporal:0.5%
[15.01.2016 16:16:23] x264 [info]: coded y,uvDC,uvAC intra: 62.2% 80.6% 55.1% inter: 14.0% 24.1% 5.0%
[15.01.2016 16:16:23] x264 [info]: i16 v,h,dc,p: 60% 8% 6% 26%
[15.01.2016 16:16:23] x264 [info]: i8 v,h,dc,ddl,ddr,vr,hd,vl,hu: 14% 7% 9% 9% 13% 13% 13% 11% 11%
[15.01.2016 16:16:23] x264 [info]: i4 v,h,dc,ddl,ddr,vr,hd,vl,hu: 24% 8% 6% 8% 12% 12% 11% 9% 10%
[15.01.2016 16:16:23] x264 [info]: i8c dc,h,v,p: 42% 22% 19% 17%
[15.01.2016 16:16:23] x264 [info]: Weighted P-Frames: Y:3.5% UV:2.0%
[15.01.2016 16:16:23] x264 [info]: ref P L0: 46.5% 9.3% 17.7% 6.8% 6.1% 4.9% 4.8% 3.0% 0.8% 0.0%
[15.01.2016 16:16:23] x264 [info]: ref B L0: 67.2% 14.4% 7.7% 4.1% 3.1% 2.3% 1.2%
[15.01.2016 16:16:23] x264 [info]: ref B L1: 91.6% 8.4%
[15.01.2016 16:16:23] x264 [info]: kb/s:2270.39
[15.01.2016 16:16:23] encoded 135103 frames, 2.19 fps, 2270.39 kb/s
GeneralComplete name : E:\Visit.2015_KinoGadget.mp4Format : MPEG-4Format profile : Base MediaCodec ID : isomFile size : 1.58 GiBDuration : 1h 33mnOverall bit rate mode : VariableOverall bit rate : 2 407 KbpsMovie name : ВизитPerformer : M. Night ShyamalanGenre : ТриллерыContentType : Short FilmDescription : Много лет назад она бежала из родительского дома без оглядки и с тех пор старалась не вспоминать события той самой ночи. Теперь у нее уже взрослые дети. Однажды они получают приглашения от бабушки и дедушки, которых никогда не видели прежде, и решаютRecorded date : UTC 2015-09-11 07:00:00Encoded date : UTC 2016-01-15 14:44:26Tagged date : UTC 2016-01-15 14:47:51Writing application : MkvToMp4 [www.mkvtomp4.ru] version: 0.224 (x32)Cover : YesTitle/Sort : The VisitLongDescription : Много лет назад она бежала из родительского дома без оглядки и с тех пор старалась не вспоминать события той самой ночи. Теперь у нее уже взрослые дети. Однажды они получают приглашения от бабушки и дедушки, которых никогда не видели прежде, и решают нанести им визит.HDVideo : YesAppleStoreCatalogID : 1033994165Vendor : Apple:vendor_id:2015-tt3567288ContentRating : ru-movie|16+|375|

VideoID : 1Format : AVCFormat/Info : Advanced Video CodecFormat profile : [email protected] settings, CABAC : YesFormat settings, ReFrames : 8 framesCodec ID : avc1Codec ID/Info : Advanced Video CodingDuration : 1h 33mnBit rate : 2 270 KbpsMaximum bit rate : 9 785 KbpsWidth : 1 280 pixelsHeight : 692 pixelsDisplay aspect ratio : 1.85:1Frame rate mode : ConstantFrame rate : 23.976 fpsColor space : YUVChroma subsampling : 4:2:0Bit depth : 8 bitsScan type : ProgressiveBits/(Pixel*Frame) : 0.107Stream size : 1.49 GiB (94%)Writing library : x264 core 148 r2638 7599210Encoding settings : cabac=1 / ref=8 / deblock=1:-1:-1 / analyse=0x3:0x133 / me=umh / subme=9 / psy=1 / psy_rd=1.00:0.15 / mixed_ref=1 / me_range=16 / chroma_me=1 / trellis=2 / 8x8dct=1 / cqm=0 / deadzone=21,11 / fast_pskip=1 / chroma_qp_offset=-3 / threads=3 / lookahead_threads=1 / sliced_threads=0 / nr=0 / decimate=1 / interlaced=0 / bluray_compat=0 / constrained_intra=0 / bframes=3 / b_pyramid=2 / b_adapt=2 / b_bias=0 / direct=3 / weightb=1 / open_gop=0 / weightp=2 / keyint=240 / keyint_min=23 / scenecut=40 / intra_refresh=0 / rc_lookahead=60 / rc=crf / mbtree=1 / crf=21.0 / qcomp=0.60 / qpmin=0 / qpmax=69 / qpstep=4 / ip_ratio=1.40 / aq=1:1.50Language : EnglishEncoded date : UTC 2016-01-15 14:44:26Tagged date : UTC 2016-01-15 14:45:54

AudioID : 2Format : AACFormat/Info : Advanced Audio CodecFormat profile : LCCodec ID : 40Duration : 1h 33mnBit rate mode : VariableBit rate : 128 KbpsMaximum bit rate : 135 KbpsChannel count : 2 channelsChannel positions : Front: L RSampling rate : 48.0 KHzCompression mode : LossyStream size : 86.0 MiB (5%)Language : RussianEncoded date : UTC 2016-01-15 14:45:34Tagged date : UTC 2016-01-15 14:45:54
[url=...39840292] [/url]

Трекер:  [ 15-Янв-2016 17:30 ]

  

Скачать .torrent

Размер .torrent файла 16 KB


Размер: 1.58 GB
Хэш (hash) релиза: adbdb621d90570ef72eb10c7a2b5a34e83b0b294

Еще никто не оставлял запись к записи скачать торрент [VIDEO] Визит The Visit . Будь первым!

!Обратная связь