Cloud computing - Wikipedia | حريم الصحراء (57 طلب) | Jay Armstrong Johnson

Скачать через торрент [VIDEO] Отель «Мэриголд». Заселение продолжается The Second Best Exotic Marigold Hotel бесплатно русская версия torrent активатор

Статистика раздачи
Размер:  1.7 GB   |    Зарегистрирован:  2 года 6 месяцев   |    .torrent скачан:  12 раз   |   
Раздают:  1  
   
загрузка...
 
Автор Сообщение

Galfimbul

avatar Galfimbul


Отель «Мэриголд». Заселение продолжается / The Second Best Exotic Marigold Hotel

Год выпуска: 2015
Оригинальное название: The Second Best Exotic Marigold Hotel
Страна: Великобритания, США
Жанр: драма, комедия
Возраст: 12+

Режиссер: Джон Мэдден

В ролях: Дев Патель, Мэгги Смит, Дэнни Махони, Ричард Гир, Селия Имри, Рональд Пикап, Дэвид Стрэтэйрн, Джуди Денч, Билл Найи, Диана Хардкэсл, Сабхраджоти Барат

Описание: Отель «Мэриголд» не был бы экзотическим, если бы не поселил двух незнакомых друг с другом людей в один номер; и он не стал бы лучшим, если бы из этого не произошло ничего хорошего.

Продолжительность: 02:02:40
Перевод: Дублированный [Лицензия]
Оригинальная дорожка: нет

Автор рипа:

Качество видео: BDRip Исходник: Blu-Ray Remux (1080p) Формат: mp4
Видео кодек: MPEG-4 AVC Аудио кодек: AAC
Видео: 1280x536 at 23.976 fps, AVC at 1 852 kbps avg, 0.113 bit/pixel
Аудио №1 Rus: 48.0 KHz, AAC, 2 ch, 128.0 Kbps
Субтитры: нет
Навигация по главам: нет
[13.01.2016 6:58:56] avs [info]: 1280x536p 1:1 @ 24000/1001 fps (cfr)
[13.01.2016 6:58:56] x264 [info]: using SAR=1/1
[13.01.2016 6:58:56] x264 [info]: using cpu capabilities: MMX2 SSE2Fast SSSE3 Cache64
[13.01.2016 6:58:56] x264 [info]: profile High, level 4.1
[13.01.2016 20:01:57] x264 [info]: frame I:1588 Avg QP:17.98 size: 95980
[13.01.2016 20:01:57] x264 [info]: frame P:48098 Avg QP:21.03 size: 19881
[13.01.2016 20:01:57] x264 [info]: frame B:126787 Avg QP:23.82 size: 4694
[13.01.2016 20:01:57] x264 [info]: consecutive B-frames: 1.7% 2.4% 15.1% 80.8%
[13.01.2016 20:01:57] x264 [info]: mb I I16..4: 13.5% 66.8% 19.6%
[13.01.2016 20:01:57] x264 [info]: mb P I16..4: 1.4% 5.7% 0.9% P16..4: 44.7% 12.7% 14.2% 0.6% 0.2% skip:19.5%
[13.01.2016 20:01:57] x264 [info]: mb B I16..4: 0.1% 0.5% 0.1% B16..8: 40.8% 4.7% 1.3% direct: 2.5% skip:50.1% L0:42.9% L1:50.0% BI: 7.1%
[13.01.2016 20:01:57] x264 [info]: 8x8 transform intra:70.0% inter:67.4%
[13.01.2016 20:01:57] x264 [info]: direct mvs spatial:100.0% temporal:0.0%
[13.01.2016 20:01:57] x264 [info]: coded y,uvDC,uvAC intra: 73.3% 82.8% 60.0% inter: 12.2% 20.5% 5.0%
[13.01.2016 20:01:57] x264 [info]: i16 v,h,dc,p: 35% 16% 7% 42%
[13.01.2016 20:01:57] x264 [info]: i8 v,h,dc,ddl,ddr,vr,hd,vl,hu: 14% 9% 6% 9% 13% 13% 12% 11% 11%
[13.01.2016 20:01:57] x264 [info]: i4 v,h,dc,ddl,ddr,vr,hd,vl,hu: 14% 9% 4% 9% 14% 14% 12% 11% 12%
[13.01.2016 20:01:57] x264 [info]: i8c dc,h,v,p: 39% 21% 22% 19%
[13.01.2016 20:01:57] x264 [info]: Weighted P-Frames: Y:3.8% UV:1.9%
[13.01.2016 20:01:57] x264 [info]: ref P L0: 49.4% 14.3% 16.0% 5.9% 4.9% 3.7% 3.3% 2.1% 0.4% 0.0%
[13.01.2016 20:01:57] x264 [info]: ref B L0: 77.6% 10.5% 5.5% 2.5% 2.0% 1.2% 0.6%
[13.01.2016 20:01:57] x264 [info]: ref B L1: 93.8% 6.2%
[13.01.2016 20:01:57] x264 [info]: kb/s:1851.79
[13.01.2016 20:01:57] encoded 176473 frames, 3.76 fps, 1851.79 kb/s
GeneralComplete name : E:\Otel_Merigold_Zaselenie_prodolzhaetsya.2015_KinoGadget.mp4Format : MPEG-4Format profile : Base MediaCodec ID : isomFile size : 1.70 GiBDuration : 2h 2mnOverall bit rate mode : VariableOverall bit rate : 1 989 KbpsMovie name : Отель «Мэриголд». Заселение продолжаетсяPerformer : John MaddenGenre : КомедииContentType : Short FilmDescription : Отель «Мэриголд» не был бы экзотическим, если бы не поселил двух незнакомых друг с другом людей в один номер; и он не стал бы лучшим, если бы из этого не произошло ничего хорошего.Recorded date : UTC 2015-02-26 08:00:00Encoded date : UTC 2016-01-14 15:52:39Tagged date : UTC 2016-01-14 15:55:51Writing application : MkvToMp4 [www.mkvtomp4.ru] version: 0.224 (x32)Cover : YesTitle/Sort : The Second Best Exotic Marigold HotelLongDescription : Отель «Мэриголд» не был бы экзотическим, если бы не поселил двух незнакомых друг с другом людей в один номер; и он не стал бы лучшим, если бы из этого не произошло ничего хорошего.HDVideo : YesAppleStoreCatalogID : 966731278Vendor : Apple:vendor_id:2015-tt2555736ContentRating : ru-movie|12+|200|

VideoID : 1Format : AVCFormat/Info : Advanced Video CodecFormat profile : [email protected] settings, CABAC : YesFormat settings, ReFrames : 8 framesCodec ID : avc1Codec ID/Info : Advanced Video CodingDuration : 2h 2mnBit rate : 1 852 KbpsMaximum bit rate : 17.0 MbpsWidth : 1 280 pixelsHeight : 536 pixelsDisplay aspect ratio : 2.40:1Frame rate mode : ConstantFrame rate : 23.976 fpsColor space : YUVChroma subsampling : 4:2:0Bit depth : 8 bitsScan type : ProgressiveBits/(Pixel*Frame) : 0.113Stream size : 1.59 GiB (93%)Writing library : x264 core 148 r2638 7599210Encoding settings : cabac=1 / ref=8 / deblock=1:-1:-1 / analyse=0x3:0x133 / me=umh / subme=9 / psy=1 / psy_rd=1.00:0.15 / mixed_ref=1 / me_range=16 / chroma_me=1 / trellis=2 / 8x8dct=1 / cqm=0 / deadzone=21,11 / fast_pskip=1 / chroma_qp_offset=-3 / threads=3 / lookahead_threads=1 / sliced_threads=0 / nr=0 / decimate=1 / interlaced=0 / bluray_compat=0 / constrained_intra=0 / bframes=3 / b_pyramid=2 / b_adapt=2 / b_bias=0 / direct=3 / weightb=1 / open_gop=0 / weightp=2 / keyint=240 / keyint_min=23 / scenecut=40 / intra_refresh=0 / rc_lookahead=60 / rc=crf / mbtree=1 / crf=21.0 / qcomp=0.60 / qpmin=0 / qpmax=69 / qpstep=4 / vbv_maxrate=62500 / vbv_bufsize=78125 / crf_max=0.0 / nal_hrd=none / filler=0 / ip_ratio=1.40 / aq=1:1.00Language : EnglishEncoded date : UTC 2016-01-14 15:52:39Tagged date : UTC 2016-01-14 15:54:03

AudioID : 2Format : AACFormat/Info : Advanced Audio CodecFormat profile : LCCodec ID : 40Duration : 2h 2mnBit rate mode : VariableBit rate : 128 KbpsMaximum bit rate : 135 KbpsChannel count : 2 channelsChannel positions : Front: L RSampling rate : 48.0 KHzCompression mode : LossyStream size : 112 MiB (6%)Language : RussianEncoded date : UTC 2016-01-14 15:53:41Tagged date : UTC 2016-01-14 15:54:03
[url=...39840292] [/url]

Трекер:  [ 14-Янв-2016 18:30 ]

  

Скачать .torrent

Размер .torrent файла 17 KB


Размер: 1.7 GB
Хэш (hash) релиза: a2905302799472ed1be561a97765b17d56ae17c3

Торренты, похожие на [VIDEO] Отель «Мэриголд». Заселение продолжается The Second Best Exotic Marigold Hotel скачать торрент

Форум Название Автор Размер S L Добавлен
Видео (Фильмы/Клипы) ·· [VIDEO] Отель «Мэриголд». Заселение продолжается / The Second Best Exotic Marigold Hotel (Джон Мэдден / John Madden) [2015, Великобритания, США, драма, комедия, HDRip][MP4, 480x] Dub iTunes Galfimbul 591233721564 MB 0 0 1436361036

16:10

8-Июл-15

Еще никто не оставлял запись к записи скачать торрент [VIDEO] Отель «Мэриголд». Заселение продолжается The Second Best Exotic Marigold Hotel . Будь первым!

!Обратная связь