Надина Вриц | Baixar toque para celular | Previous Video

Скачать через торрент [VIDEO] Хорошее убийство Good Kill бесплатно русская версия torrent активатор

Статистика раздачи
Размер:  1.41 GB   |    Зарегистрирован:  2 года 6 месяцев   |    .torrent скачан:  17 раз   |   
Раздают:  1  
   
загрузка...
 
Автор Сообщение

Galfimbul

avatar Galfimbul


Хорошее убийство / Good Kill«If you never face your enemy, how can you face yourself»
Год выпуска: 2014
Оригинальное название: Good Kill
Страна: США
Жанр: драма, военный
Возраст: 16+

Режиссер: Эндрю Никкол

В ролях: Дженьюэри Джонс, Итэн Хоук, Зои Кравиц, Джейк Эйбел, Брюс Гринвуд, Альма Сиснерос, Кристен Рейкс, Рич Чавез, Майкл Шитс, Билл Сьюард

Описание: Действие фильма развернется вокруг летчика, управляющего беспилотным истребителем из Лос-Анджелеса. Каждый день он атакует талибов на другом конце земного шара, а по вечерам отправляется домой, где его ждут скандалы с женой и детьми. Устав от такой жизни, главный герой начинает сомневаться в правильности своей миссии. Ведь сколько бы террористов он не убил, им на смену приходят новые.

Продолжительность: 01:42:33
Перевод: Профессиональный многоголосый
Оригинальная дорожка: нет

Автор рипа:

Качество видео: BDRip Исходник: Blu-Ray Remux (1080p) Формат: mp4
Видео кодек: MPEG-4 AVC Аудио кодек: AAC
Видео: 1280x720 at 23.976 fps, AVC at 1 834 kbps avg, 1 834 bit/pixel
Аудио №1 Rus: 48.0 KHz, AAC, 2 ch, 128.0 Kbps
Субтитры: нет
Навигация по главам: нет
GeneralComplete name : E:\Xoroshee_ubijstvo.2014_KinoGadget.mp4Format : MPEG-4Format profile : Base MediaCodec ID : isomFile size : 1.41 GiBDuration : 1h 42mnOverall bit rate mode : VariableOverall bit rate : 1 971 KbpsMovie name : Хорошее убийствоPerformer : Эндрю НикколGenre : Drama, ThrillerContentType : Short FilmRecorded date : 2014Encoded date : UTC 2016-01-11 16:49:17Tagged date : UTC 2016-01-11 17:03:53Cover : YesContentRating : mpaa|R|400|

LongDescription : Действие фильма развернется вокруг летчика, управляющего беспилотным истребителем из Лос-Анджелеса. Каждый день он атакует талибов на другом конце земного шара, а по вечерам отправляется домой, где его ждут скандалы с женой и детьми. Устав от такой жизни, главный герой начинает сомневаться в правильности своей миссии. Ведь сколько бы террористов он не убил, им на смену приходят новые.HDVideo : Yes

VideoID : 1Format : AVCFormat/Info : Advanced Video CodecFormat profile : [email protected] settings, CABAC : YesFormat settings, ReFrames : 8 framesCodec ID : avc1Codec ID/Info : Advanced Video CodingDuration : 1h 42mnBit rate : 1 834 KbpsMaximum bit rate : 9 688 KbpsWidth : 1 280 pixelsHeight : 720 pixelsDisplay aspect ratio : 16:9Frame rate mode : ConstantFrame rate : 23.976 fpsColor space : YUVChroma subsampling : 4:2:0Bit depth : 8 bitsScan type : ProgressiveBits/(Pixel*Frame) : 0.083Stream size : 1.31 GiB (93%)Writing library : x264 core 130 r2273 b3065e6Encoding settings : cabac=1 / ref=8 / deblock=1:-1:-1 / analyse=0x3:0x133 / me=umh / subme=7 / psy=1 / psy_rd=1.00:0.10 / mixed_ref=1 / me_range=16 / chroma_me=1 / trellis=2 / 8x8dct=1 / cqm=0 / deadzone=21,11 / fast_pskip=0 / chroma_qp_offset=-3 / threads=3 / lookahead_threads=1 / sliced_threads=0 / nr=0 / decimate=1 / interlaced=0 / bluray_compat=0 / constrained_intra=0 / bframes=3 / b_pyramid=2 / b_adapt=2 / b_bias=0 / direct=3 / weightb=1 / open_gop=0 / weightp=2 / keyint=250 / keyint_min=23 / scenecut=40 / intra_refresh=0 / rc_lookahead=50 / rc=crf / mbtree=1 / crf=21.0 / qcomp=0.60 / qpmin=0 / qpmax=69 / qpstep=4 / ip_ratio=1.40 / aq=1:1.00Language : EnglishEncoded date : UTC 2016-01-11 16:27:01Tagged date : UTC 2016-01-11 16:50:47

AudioID : 2Format : AACFormat/Info : Advanced Audio CodecFormat profile : LCCodec ID : 40Duration : 1h 42mnBit rate mode : VariableBit rate : 128 KbpsMaximum bit rate : 135 KbpsChannel count : 2 channelsChannel positions : Front: L RSampling rate : 48.0 KHzCompression mode : LossyStream size : 93.9 MiB (6%)Language : RussianEncoded date : UTC 2016-01-11 16:34:16Tagged date : UTC 2016-01-11 16:50:47
[url=...39840292] [/url]

Трекер:  [ 11-Янв-2016 20:00 ]

  

Скачать .torrent

Размер .torrent файла 14 KB


Размер: 1.41 GB
Хэш (hash) релиза: 0e62a411bcabb6c3e8e62da8a58f2c77c1b88d95

Еще никто не оставлял запись к записи скачать торрент [VIDEO] Хорошее убийство Good Kill . Будь первым!

!Обратная связь