Let's Dance | Torrents | AndrzejP

Скачать через торрент [VIDEO] Марсианин The Martian бесплатно русская версия torrent активатор

Статистика раздачи
Размер:  2.1 GB   |    Зарегистрирован:  2 года 6 месяцев   |    .torrent скачан:  103 раза   |   
Раздают:  1  
   
загрузка...
 
Автор Сообщение

Galfimbul

avatar Galfimbul


Марсианин / The Martian«Верните его домой»
Год выпуска: 2015
Оригинальное название: The Martian
Страна: США, Великобритания
Жанр: фантастика, приключения
Возраст: 16+

Режиссер: Ридли Скотт

В ролях: Мэтт Дэймон, Джессика Честейн, Чиветел Эджиофор, Кристен Уиг, Джефф Дэниелс, Майкл Пенья, Шон Бин, Кейт Мара, Себастьян Стэн, Аксель Хенни, Бенедикт Вонг, Маккензи Дэвис, Дональд Гловер, Ник Мохаммед, Чен Шу, Эдди Ко, Энцо Чиленти, Джонатан Арис, Граффадд Глин, Наоми Скотт

Описание: Марсианская миссия «Арес-3» в процессе работы была вынуждена экстренно покинуть планету из-за надвигающейся песчаной бури. Инженер и биолог Марк Уотни получил повреждение скафандра во время песчаной бури. Сотрудники миссии, посчитав его погибшим, эвакуировались с планеты, оставив Марка одного.

Очнувшись, Уотни обнаруживает, что связь с Землёй отсутствует, но при этом полностью функционирует жилой модуль. Главный герой начинает искать способ продержаться на имеющихся запасах еды, витаминов, воды и воздуха ещё 4 года до прилёта следующей миссии «Арес-4».

Продолжительность: 02:21:37
Перевод: Дублированный [Лицензия]
Оригинальная дорожка: нет

Автор рипа:

Качество видео: BDRip Исходник: Blu-Ray Remux (1080p) Формат: mp4
Видео кодек: MPEG-4 AVC Аудио кодек: AAC
Видео: 1280x534 at 23.976 fps, AVC at 1 986 kbps avg, 0.121 bit/pixel
Аудио №1 Rus: 48.0 KHz, AAC, 2 ch, 128.0 Kbps
Субтитры: нет
Навигация по главам: нет
[10.01.2016 17:56:50] avs [info]: 1280x534p 1:1 @ 24000/1001 fps (cfr)
[10.01.2016 17:56:50] x264 [info]: using SAR=1/1
[10.01.2016 17:56:50] x264 [info]: using cpu capabilities: MMX2 SSE2Fast SSSE3 Cache64
[10.01.2016 17:56:50] x264 [info]: profile High, level 4.1
[11.01.2016 14:15:11] x264 [info]: frame I:2294 Avg QP:16.51 size:105785
[11.01.2016 14:15:17] x264 [info]: frame P:57327 Avg QP:19.22 size: 18918
[11.01.2016 14:15:17] x264 [info]: frame B:144117 Avg QP:20.43 size: 5430
[11.01.2016 14:15:17] x264 [info]: consecutive B-frames: 2.1% 4.1% 20.0% 73.8%
[11.01.2016 14:15:17] x264 [info]: mb I I16..4: 9.9% 66.8% 23.3%
[11.01.2016 14:15:17] x264 [info]: mb P I16..4: 0.9% 5.2% 0.7% P16..4: 46.4% 16.2% 14.1% 0.5% 0.2% skip:15.8%
[11.01.2016 14:15:17] x264 [info]: mb B I16..4: 0.1% 0.6% 0.1% B16..8: 43.2% 5.8% 1.2% direct: 2.8% skip:46.3% L0:42.7% L1:51.4% BI: 5.9%
[11.01.2016 14:15:17] x264 [info]: 8x8 transform intra:73.9% inter:62.6%
[11.01.2016 14:15:17] x264 [info]: direct mvs spatial:99.1% temporal:0.9%
[11.01.2016 14:15:17] x264 [info]: coded y,uvDC,uvAC intra: 84.2% 78.9% 55.7% inter: 14.7% 15.7% 2.1%
[11.01.2016 14:15:17] x264 [info]: i16 v,h,dc,p: 34% 16% 16% 33%
[11.01.2016 14:15:17] x264 [info]: i8 v,h,dc,ddl,ddr,vr,hd,vl,hu: 13% 8% 8% 9% 13% 12% 13% 10% 12%
[11.01.2016 14:15:17] x264 [info]: i4 v,h,dc,ddl,ddr,vr,hd,vl,hu: 15% 11% 4% 9% 13% 12% 12% 10% 12%
[11.01.2016 14:15:17] x264 [info]: i8c dc,h,v,p: 42% 26% 18% 14%
[11.01.2016 14:15:17] x264 [info]: Weighted P-Frames: Y:4.3% UV:2.2%
[11.01.2016 14:15:17] x264 [info]: ref P L0: 49.4% 11.3% 16.5% 6.8% 5.4% 4.0% 3.5% 2.3% 0.6% 0.0%
[11.01.2016 14:15:17] x264 [info]: ref B L0: 75.5% 11.5% 5.6% 3.0% 2.4% 1.3% 0.7%
[11.01.2016 14:15:17] x264 [info]: ref B L1: 93.3% 6.7%
[11.01.2016 14:15:17] x264 [info]: kb/s:1986.13
[11.01.2016 14:15:17] encoded 203738 frames, 2.79 fps, 1986.13 kb/s
GeneralComplete name : E:\Marsianin.2015_KinoGadget.mp4Format : MPEG-4Format profile : Base MediaCodec ID : isomFile size : 2.10 GiBDuration : 2h 21mnOverall bit rate mode : VariableOverall bit rate : 2 123 KbpsMovie name : МарсианинPerformer : Ридли СкоттGenre : Adventure, DramaContentType : Short FilmRecorded date : 2015Encoded date : UTC 2016-01-11 15:52:49Tagged date : UTC 2016-01-11 15:59:51Cover : Yes

LongDescription : Марсианская миссия «Арес-3» в процессе работы была вынуждена экстренно покинуть планету из-за надвигающейся песчаной бури. Инженер и биолог Марк Уотни получил повреждение скафандра во время песчаной бури. Сотрудники миссии, посчитав его погибшим, эвакуировались с планеты, оставив Марка одного. / / Очнувшись, Уотни обнаруживает, что связь с Землёй отсутствует, но при этом полностью функционирует жилой модуль. Главный герой начинает искать способ продержаться на имеющихся запасах еды, витаминов, воды и воздуха ещё 4 года до прилёта следующей миссии «Арес-4».HDVideo : Yes

VideoID : 1Format : AVCFormat/Info : Advanced Video CodecFormat profile : [email protected] settings, CABAC : YesFormat settings, ReFrames : 8 framesCodec ID : avc1Codec ID/Info : Advanced Video CodingDuration : 2h 21mnBit rate : 1 986 KbpsMaximum bit rate : 11.3 MbpsWidth : 1 280 pixelsHeight : 534 pixelsDisplay aspect ratio : 2.40:1Frame rate mode : ConstantFrame rate : 23.976 fpsColor space : YUVChroma subsampling : 4:2:0Bit depth : 8 bitsScan type : ProgressiveBits/(Pixel*Frame) : 0.121Stream size : 1.96 GiB (94%)Writing library : x264 core 148 r2638 7599210Encoding settings : cabac=1 / ref=8 / deblock=1:-1:-1 / analyse=0x3:0x133 / me=umh / subme=9 / psy=1 / psy_rd=1.00:0.15 / mixed_ref=1 / me_range=16 / chroma_me=1 / trellis=2 / 8x8dct=1 / cqm=0 / deadzone=21,11 / fast_pskip=1 / chroma_qp_offset=-3 / threads=3 / lookahead_threads=1 / sliced_threads=0 / nr=0 / decimate=1 / interlaced=0 / bluray_compat=0 / constrained_intra=0 / bframes=3 / b_pyramid=2 / b_adapt=2 / b_bias=0 / direct=3 / weightb=1 / open_gop=0 / weightp=2 / keyint=240 / keyint_min=23 / scenecut=40 / intra_refresh=0 / rc_lookahead=60 / rc=crf / mbtree=1 / crf=21.0 / qcomp=0.60 / qpmin=0 / qpmax=69 / qpstep=4 / vbv_maxrate=62500 / vbv_bufsize=78125 / crf_max=0.0 / nal_hrd=none / filler=0 / ip_ratio=1.40 / aq=1:1.50Language : EnglishEncoded date : UTC 2016-01-11 15:27:23Tagged date : UTC 2016-01-11 15:54:48

AudioID : 2Format : AACFormat/Info : Advanced Audio CodecFormat profile : LCCodec ID : 40Duration : 2h 21mnBit rate mode : VariableBit rate : 128 KbpsMaximum bit rate : 135 KbpsChannel count : 2 channelsChannel positions : Front: L RSampling rate : 48.0 KHzCompression mode : LossyStream size : 130 MiB (6%)Language : RussianEncoded date : UTC 2016-01-11 15:41:52Tagged date : UTC 2016-01-11 15:54:48

Text #1ID : 3Format : Timed TextCodec ID : tx3gDuration : 2h 21mnBit rate mode : VariableBit rate : 3 bpsStream size : 3.39 KiB (0%)Title : ForcedLanguage : RussianEncoded date : UTC 2016-01-11 15:54:47Tagged date : UTC 2016-01-11 15:54:48

Text #2ID : 4Format : Timed TextCodec ID : tx3gDuration : 2h 21mnBit rate mode : VariableBit rate : 3 bpsStream size : 2.59 KiB (0%)Title : ForcedLanguage : UkrainianEncoded date : UTC 2016-01-11 15:54:47Tagged date : UTC 2016-01-11 15:54:48

Menu00:00:00.000 : 00:00:00.00000:03:22.285 : 00:03:22.28500:10:08.983 : 00:10:08.98300:15:24.590 : 00:15:24.59000:18:25.187 : 00:18:25.18700:21:34.376 : 00:21:34.37600:24:28.091 : 00:24:28.09100:28:52.689 : 00:28:52.68900:31:36.644 : 00:31:36.64400:34:21.100 : 00:34:21.10000:39:13.434 : 00:39:13.43400:41:21.770 : 00:41:21.77000:46:23.530 : 00:46:23.53000:49:25.087 : 00:49:25.08700:56:15.747 : 00:56:15.74700:59:40.493 : 00:59:40.49301:02:23.823 : 01:02:23.82301:06:53.134 : 01:06:53.13401:09:52.980 : 01:09:52.98001:13:51.301 : 01:13:51.30101:18:38.255 : 01:18:38.25501:22:52.467 : 01:22:52.46701:30:41.269 : 01:30:41.26901:37:30.094 : 01:37:30.09401:43:31.997 : 01:43:31.99701:46:16.286 : 01:46:16.28601:50:18.737 : 01:50:18.73701:54:07.966 : 01:54:07.96601:57:49.312 : 01:57:49.31202:04:41.682 : 02:04:41.68202:11:05.732 : 02:11:05.73202:13:28.792 : 02:13:28.792
[url=...39840292] [/url]

Трекер:  [ 11-Янв-2016 18:00 ]

  

Скачать .torrent

Размер .torrent файла 11 KB


Размер: 2.1 GB
Хэш (hash) релиза: d125999a648065d21f425508abe14d0ce14b2195

Еще никто не оставлял запись к записи скачать торрент [VIDEO] Марсианин The Martian . Будь первым!

!Обратная связь