Création Originale CANAL+ | You Can Heal Your Life | Voskresnye Vremya 01 07 2018 avi

Скачать через торрент [VIDEO] Начало Inception бесплатно русская версия torrent активатор

Статистика раздачи
Размер:  2.91 GB   |    Зарегистрирован:  2 года 6 месяцев   |    .torrent скачан:  59 раз   |   
Раздают:  1  
   
загрузка...
 
Автор Сообщение

Galfimbul

avatar Galfimbul


Начало / Inception«Твой разум - место преступления»
Год выпуска: 2010
Оригинальное название: Inception
Страна: США, Великобритания
Жанр: фантастика, боевик, триллер, драма, детектив
Возраст: 12+

Режиссер: Кристофер Нолан

В ролях: Леонардо ДиКаприо, Джозеф Гордон-Левитт, Эллен Пейдж, Том Харди, Кен Ватанабе, Дилип Рао, Киллиан Мёрфи, Том Беренджер, Марион Котийяр, Пит Постлетуэйт, Майкл Кейн, Лукас Хаас, Клер Джир, Тейлор Джир, Тохору Масамуне, Юдзи Окумото, Эрл Кэмерон, Миранда Нолан, Расс Фега, Тим Келлехер, Талула Райли, Сильви Лагюна, Верджил Брэмли, Марк Флайшманн, Николь Пуллиам, Майкл Гэстон

Описание: Кобб — талантливый вор, лучший из лучших в опасном искусстве извлечения: он крадет ценные секреты из глубин подсознания во время сна, когда человеческий разум наиболее уязвим. Редкие способности Кобба сделали его ценным игроком в привычном к предательству мире промышленного шпионажа, но они же превратили его в извечного беглеца и лишили всего, что он когда-либо любил.

И вот у Кобба появляется шанс исправить ошибки. Его последнее дело может вернуть все назад, но для этого ему нужно совершить невозможное — инициацию. Вместо идеальной кражи Кобб и его команда спецов должны будут провернуть обратное. Теперь их задача — не украсть идею, а внедрить ее. Если у них получится, это и станет идеальным преступлением.

Но никакое планирование или мастерство не могут подготовить команду к встрече с опасным противником, который, кажется, предугадывает каждый их ход. Врагом, увидеть которого мог бы лишь Кобб.

Продолжительность: 02:28:07
Перевод: Дублированный
Оригинальная дорожка: нет

Автор рипа:

Качество видео: BDRip Исходник: Blu-Ray Remux (1080p) Формат: mp4
Видео кодек: MPEG-4 AVC Аудио кодек: AAC
Видео: 1280x532 at 23.976 fps, AVC at 2 679 kbps avg, 0.164 bit/pixel
Аудио №1 Rus: 48.0 KHz, AAC, 2 ch, 128.0 Kbps
Субтитры: русские (Forced)
Навигация по главам: нет
[08.01.2016 15:17:44] avs [info]: 1280x532p 1:1 @ 24000/1001 fps (cfr)
[08.01.2016 15:17:44] x264 [info]: using SAR=1/1
[08.01.2016 15:17:44] x264 [info]: using cpu capabilities: MMX2 SSE2Fast SSSE3 Cache64
[08.01.2016 15:17:44] x264 [info]: profile High, level 4.1
[10.01.2016 3:37:25] x264 [info]: frame I:2428 Avg QP:15.15 size: 80544
[10.01.2016 3:37:27] x264 [info]: frame P:59519 Avg QP:17.85 size: 22187
[10.01.2016 3:37:28] x264 [info]: frame B:151149 Avg QP:18.22 size: 9662
[10.01.2016 3:37:28] x264 [info]: consecutive B-frames: 2.3% 4.2% 15.2% 78.2%
[10.01.2016 3:37:28] x264 [info]: mb I I16..4: 10.3% 75.4% 14.3%
[10.01.2016 3:37:28] x264 [info]: mb P I16..4: 2.1% 9.6% 1.3% P16..4: 45.0% 19.9% 11.7% 0.2% 0.1% skip:10.3%
[10.01.2016 3:37:28] x264 [info]: mb B I16..4: 0.2% 1.3% 0.2% B16..8: 49.0% 10.9% 1.9% direct: 4.2% skip:32.3% L0:45.9% L1:48.7% BI: 5.5%
[10.01.2016 3:37:28] x264 [info]: 8x8 transform intra:74.7% inter:61.5%
[10.01.2016 3:37:28] x264 [info]: direct mvs spatial:100.0% temporal:0.0%
[10.01.2016 3:37:28] x264 [info]: coded y,uvDC,uvAC intra: 80.4% 70.1% 40.7% inter: 24.4% 15.1% 0.9%
[10.01.2016 3:37:28] x264 [info]: i16 v,h,dc,p: 62% 9% 9% 20%
[10.01.2016 3:37:28] x264 [info]: i8 v,h,dc,ddl,ddr,vr,hd,vl,hu: 14% 8% 8% 9% 13% 12% 12% 11% 12%
[10.01.2016 3:37:28] x264 [info]: i4 v,h,dc,ddl,ddr,vr,hd,vl,hu: 27% 7% 5% 7% 12% 11% 11% 9% 10%
[10.01.2016 3:37:28] x264 [info]: i8c dc,h,v,p: 35% 32% 20% 13%
[10.01.2016 3:37:28] x264 [info]: Weighted P-Frames: Y:4.4% UV:0.9%
[10.01.2016 3:37:28] x264 [info]: ref P L0: 46.1% 10.2% 18.9% 7.3% 6.2% 4.4% 4.1% 2.4% 0.5% 0.0%
[10.01.2016 3:37:28] x264 [info]: ref B L0: 70.1% 13.9% 7.1% 3.7% 2.7% 1.7% 0.8%
[10.01.2016 3:37:28] x264 [info]: ref B L1: 92.6% 7.4%
[10.01.2016 3:37:28] x264 [info]: kb/s:2679.21
[10.01.2016 3:37:28] encoded 213096 frames, 1.63 fps, 2679.21 kb/s
GeneralComplete name : E:\Nachalo.2010_KinoGadget.mp4Format : MPEG-4Format profile : Base MediaCodec ID : isomFile size : 2.91 GiBDuration : 2h 28mnOverall bit rate mode : VariableOverall bit rate : 2 816 KbpsMovie name : НачалоPerformer : Кристофер НоланGenre : Action, MysteryContentType : Short FilmRecorded date : 2010Encoded date : UTC 2016-01-10 08:58:34Tagged date : UTC 2016-01-10 09:09:40Cover : YesContentRating : mpaa|PG-13|300|

LongDescription : Кобб — талантливый вор, лучший из лучших в опасном искусстве извлечения: он крадет ценные секреты из глубин подсознания во время сна, когда человеческий разум наиболее уязвим. Редкие способности Кобба сделали его ценным игроком в привычном к предательству мире промышленного шпионажа, но они же превратили его в извечного беглеца и лишили всего, что он когда-либо любил.HDVideo : Yes

VideoID : 1Format : AVCFormat/Info : Advanced Video CodecFormat profile : [email protected] settings, CABAC : YesFormat settings, ReFrames : 8 framesCodec ID : avc1Codec ID/Info : Advanced Video CodingDuration : 2h 28mnBit rate : 2 679 KbpsMaximum bit rate : 17.7 MbpsWidth : 1 280 pixelsHeight : 532 pixelsDisplay aspect ratio : 2.40:1Frame rate mode : ConstantFrame rate : 23.976 fpsColor space : YUVChroma subsampling : 4:2:0Bit depth : 8 bitsScan type : ProgressiveBits/(Pixel*Frame) : 0.164Stream size : 2.77 GiB (95%)Writing library : x264 core 148 r2638 7599210Encoding settings : cabac=1 / ref=8 / deblock=1:-1:-1 / analyse=0x3:0x133 / me=umh / subme=9 / psy=1 / psy_rd=1.00:0.15 / mixed_ref=1 / me_range=16 / chroma_me=1 / trellis=2 / 8x8dct=1 / cqm=0 / deadzone=21,11 / fast_pskip=1 / chroma_qp_offset=-3 / threads=3 / lookahead_threads=1 / sliced_threads=0 / nr=0 / decimate=1 / interlaced=0 / bluray_compat=0 / constrained_intra=0 / bframes=3 / b_pyramid=2 / b_adapt=2 / b_bias=0 / direct=3 / weightb=1 / open_gop=0 / weightp=2 / keyint=240 / keyint_min=23 / scenecut=40 / intra_refresh=0 / rc_lookahead=60 / rc=crf / mbtree=1 / crf=20.0 / qcomp=0.60 / qpmin=0 / qpmax=69 / qpstep=4 / vbv_maxrate=62500 / vbv_bufsize=78125 / crf_max=0.0 / nal_hrd=none / filler=0 / ip_ratio=1.40 / aq=1:1.50Language : EnglishEncoded date : UTC 2016-01-10 08:42:09Tagged date : UTC 2016-01-10 09:01:01

AudioID : 2Format : AACFormat/Info : Advanced Audio CodecFormat profile : LCCodec ID : 40Duration : 2h 28mnBit rate mode : VariableBit rate : 128 KbpsMaximum bit rate : 135 KbpsChannel count : 2 channelsChannel positions : Front: L RSampling rate : 48.0 KHzCompression mode : LossyStream size : 136 MiB (5%)Language : RussianEncoded date : UTC 2016-01-10 08:45:07Tagged date : UTC 2016-01-10 09:01:01

TextID : 3Format : Timed TextCodec ID : tx3gDuration : 2h 27mnBit rate mode : VariableBit rate : 1 bpsStream size : 715 Bytes (0%)Language : RussianEncoded date : UTC 2016-01-10 09:01:01Tagged date : UTC 2016-01-10 09:01:01
[url=...39840292] [/url]

Трекер:  [ 10-Янв-2016 12:00 ]

  

Скачать .torrent

Размер .torrent файла 15 KB


Размер: 2.91 GB
Хэш (hash) релиза: d83a1a2054427dedc4adc2696895803ab66fd882

Еще никто не оставлял запись к записи скачать торрент [VIDEO] Начало Inception . Будь первым!

!Обратная связь